[ create a new paste ] login | about

Link: http://codepad.org/y44lFA6H    [ raw code | fork ]

Plain Text, pasted on Aug 20:
Exact Audio Copy V1.0 beta 3 from 29. August 2011

EAC extraction logfile from 3. August 2012, 23:14

Various / Concert For George (Disc 2) (R2 74546)

Used drive  : PIONEER DVD-RW  DVR-219L   Adapter: 2  ID: 0

Read mode               : Secure
Utilize accurate stream : Yes
Defeat audio cache      : Yes
Make use of C2 pointers : No

Read offset correction                      : 6
Overread into Lead-In and Lead-Out          : No
Fill up missing offset samples with silence : Yes
Delete leading and trailing silent blocks   : No
Null samples used in CRC calculations       : Yes
Used interface                              : Native Win32 interface for Win NT & 2000

Used output format              : User Defined Encoder
Selected bitrate                : 1024 kBit/s
Quality                         : High
Add ID3 tag                     : No
Command line compressor         : C:\Program Files\Exact Audio Copy\Flac\flac.exe
Additional command line options : -V -8 -T "Genre=%genre%" -T "Artist=%artist%" -T "Title=%title%" -T "Album=%albumtitle%" -T "Date=%year%" -T "Tracknumber=%tracknr%" -T "Comment=%comment%" %source%


TOC of the extracted CD

     Track |   Start  |  Length  | Start sector | End sector 
    ---------------------------------------------------------
        1  |  0:00.00 |  2:52.70 |         0    |    12969   
        2  |  2:52.70 |  2:28.65 |     12970    |    24134   
        3  |  5:21.60 |  3:48.02 |     24135    |    41236   
        4  |  9:09.62 |  3:29.15 |     41237    |    56926   
        5  | 12:39.02 |  4:00.70 |     56927    |    74996   
        6  | 16:39.72 |  3:09.03 |     74997    |    89174   
        7  | 19:49.00 |  3:39.57 |     89175    |   105656   
        8  | 23:28.57 |  3:10.65 |    105657    |   119971   
        9  | 26:39.47 |  3:00.15 |    119972    |   133486   
       10  | 29:39.62 |  3:27.05 |    133487    |   149016   
       11  | 33:06.67 |  6:58.10 |    149017    |   180376   
       12  | 40:05.02 |  3:56.48 |    180377    |   198124   
       13  | 44:01.50 |  3:03.47 |    198125    |   211896   
       14  | 47:05.22 |  3:04.43 |    211897    |   225739   
       15  | 50:09.65 |  4:25.32 |    225740    |   245646   
       16  | 54:35.22 |  3:33.05 |    245647    |   261626   
       17  | 58:08.27 |  5:57.08 |    261627    |   288409   
       18  | 64:05.35 |  5:02.35 |    288410    |   311094   
       19  | 69:07.70 |  6:06.27 |    311095    |   338571   
       20  | 75:14.22 |  4:01.40 |    338572    |   356686   


Range status and errors

Selected range

     Filename H:\dafnaplus\VA - Concert For George\Cd\Various - Concert For George (Disc 2) (R2 74546).wav

     Peak level 98.8 %
     Extraction speed 1.9 X
     Range quality 100.0 %
     Test CRC AC5B76C9
     Copy CRC AC5B76C9
     Copy OK

No errors occurred

 
AccurateRip summary
 
Track  1  accurately ripped (confidence 8)  [ED93B646]  (AR v2)
Track  2  accurately ripped (confidence 7)  [B9DA562E]  (AR v2)
Track  3  accurately ripped (confidence 7)  [F72C3ABD]  (AR v2)
Track  4  accurately ripped (confidence 8)  [E430BCEB]  (AR v2)
Track  5  accurately ripped (confidence 8)  [F59DEAA9]  (AR v2)
Track  6  accurately ripped (confidence 8)  [51236E91]  (AR v2)
Track  7  accurately ripped (confidence 8)  [8FF59AB5]  (AR v2)
Track  8  accurately ripped (confidence 8)  [4D1796A0]  (AR v2)
Track  9  accurately ripped (confidence 8)  [FAA8F287]  (AR v2)
Track 10  accurately ripped (confidence 8)  [9C7D62EE]  (AR v2)
Track 11  accurately ripped (confidence 8)  [082FBD74]  (AR v2)
Track 12  accurately ripped (confidence 8)  [FE137557]  (AR v2)
Track 13  accurately ripped (confidence 8)  [D93FEBA4]  (AR v2)
Track 14  accurately ripped (confidence 8)  [FB86E4E1]  (AR v2)
Track 15  accurately ripped (confidence 8)  [40B6A3B7]  (AR v2)
Track 16  accurately ripped (confidence 8)  [DDA513B7]  (AR v2)
Track 17  accurately ripped (confidence 8)  [43EB2090]  (AR v2)
Track 18  accurately ripped (confidence 8)  [0E8CE778]  (AR v2)
Track 19  accurately ripped (confidence 8)  [7809BE72]  (AR v2)
Track 20  accurately ripped (confidence 8)  [25020A2F]  (AR v2)
 
All tracks accurately ripped

End of status report

==== Log checksum 9B1A1614EF5D80736DC672E4FCDB8ACD88B422421DB3E0D3B1980AD662330584 ====



Create a new paste based on this one


Comments: