[ create a new paste ] login | about

Link: http://codepad.org/y4fMEzEQ    [ raw code | fork ]

Plain Text, pasted on Dec 20:
Exact Audio Copy V1.3 from 2. September 2016

EAC extraction logfile from 17. December 2018, 22:22

Bruce Springsteen / Springsteen on Broadway

Used drive  : ASUS    BW-12D1S-U   Adapter: 1  ID: 1

Read mode               : Secure
Utilize accurate stream : Yes
Defeat audio cache      : Yes
Make use of C2 pointers : No

Read offset correction                      : 667
Overread into Lead-In and Lead-Out          : No
Fill up missing offset samples with silence : Yes
Delete leading and trailing silent blocks   : No
Null samples used in CRC calculations       : Yes
Used interface                              : Native Win32 interface for Win NT & 2000
Gap handling                                : Appended to previous track

Used output format              : User Defined Encoder
Selected bitrate                : 1024 kBit/s
Quality                         : High
Add ID3 tag                     : No
Command line compressor         : C:\Program Files (x86)\Exact Audio Copy\FLAC\FLAC.EXE
Additional command line options : -V -8 -T "Genre=%genre%" -T "Artist=%artist%" -T "Title=%title%" -T "Album=%albumtitle%" -T "Date=%year%" -T "Tracknumber=%tracknr%" -T "Comment=%comment%" %source%


TOC of the extracted CD

     Track |   Start  |  Length  | Start sector | End sector 
    ---------------------------------------------------------
        1  |  0:00.00 |  8:09.14 |         0    |    36688   
        2  |  8:09.14 |  4:44.39 |     36689    |    58027   
        3  | 12:53.53 |  1:10.01 |     58028    |    63278   
        4  | 14:03.54 |  7:56.01 |     63279    |    98979   
        5  | 21:59.55 |  1:25.13 |     98980    |   105367   
        6  | 23:24.68 |  4:29.71 |    105368    |   125613   
        7  | 27:54.64 |  1:43.26 |    125614    |   133364   
        8  | 29:38.15 |  4:47.33 |    133365    |   154922   
        9  | 34:25.48 |  3:08.38 |    154923    |   169060   
       10  | 37:34.11 |  3:54.35 |    169061    |   186645   
       11  | 41:28.46 |  3:27.52 |    186646    |   202222   
       12  | 44:56.23 |  4:36.26 |    202223    |   222948   
       13  | 49:32.49 |  4:33.07 |    222949    |   243430   
       14  | 54:05.56 |  2:47.13 |    243431    |   255968   
       15  | 56:52.69 |  4:10.00 |    255969    |   274718   
       16  | 61:02.69 |  3:57.45 |    274719    |   292538   
       17  | 65:00.39 |  7:35.40 |    292539    |   326703   
       18  | 72:36.04 |  5:10.24 |    326704    |   349977   


Track  1

     Filename E:\Torrents of Autumn\Springsteen, Bruce [2018] Springsteen on Broadway (2-CD set)\Disc Two\01. Born in the U.S.A. (intro).wav

     Pre-gap length  0:00:02.00

     Peak level 96.4 %
     Extraction speed 5.4 X
     Track quality 100.0 %
     Test CRC DA5468C2
     Copy CRC DA5468C2
     Track not present in AccurateRip database
     Copy OK

Track  2

     Filename E:\Torrents of Autumn\Springsteen, Bruce [2018] Springsteen on Broadway (2-CD set)\Disc Two\02. Born in the U.S.A..wav

     Peak level 98.8 %
     Extraction speed 5.3 X
     Track quality 99.9 %
     Test CRC 3D4686E0
     Copy CRC 3D4686E0
     Track not present in AccurateRip database
     Copy OK

Track  3

     Filename E:\Torrents of Autumn\Springsteen, Bruce [2018] Springsteen on Broadway (2-CD set)\Disc Two\03. Tenth Avenue Freeze-Out (intro).wav

     Peak level 81.7 %
     Extraction speed 3.4 X
     Track quality 99.8 %
     Test CRC 633ECA0B
     Copy CRC 633ECA0B
     Track not present in AccurateRip database
     Copy OK

Track  4

     Filename E:\Torrents of Autumn\Springsteen, Bruce [2018] Springsteen on Broadway (2-CD set)\Disc Two\04. Tenth Avenue Freeze-Out.wav

     Peak level 99.2 %
     Extraction speed 6.7 X
     Track quality 100.0 %
     Test CRC 1F7C37C4
     Copy CRC 1F7C37C4
     Track not present in AccurateRip database
     Copy OK

Track  5

     Filename E:\Torrents of Autumn\Springsteen, Bruce [2018] Springsteen on Broadway (2-CD set)\Disc Two\05. Tougher Than the Rest (intro).wav

     Peak level 95.5 %
     Extraction speed 5.4 X
     Track quality 100.0 %
     Test CRC 097712C1
     Copy CRC 097712C1
     Track not present in AccurateRip database
     Copy OK

Track  6

     Filename E:\Torrents of Autumn\Springsteen, Bruce [2018] Springsteen on Broadway (2-CD set)\Disc Two\06. Tougher Than the Rest.wav

     Peak level 96.8 %
     Extraction speed 6.9 X
     Track quality 100.0 %
     Test CRC 8C2CB400
     Copy CRC 8C2CB400
     Track not present in AccurateRip database
     Copy OK

Track  7

     Filename E:\Torrents of Autumn\Springsteen, Bruce [2018] Springsteen on Broadway (2-CD set)\Disc Two\07. Brillant Disguise (intro).wav

     Peak level 57.1 %
     Extraction speed 6.0 X
     Track quality 100.0 %
     Test CRC A6304FC7
     Copy CRC A6304FC7
     Track not present in AccurateRip database
     Copy OK

Track  8

     Filename E:\Torrents of Autumn\Springsteen, Bruce [2018] Springsteen on Broadway (2-CD set)\Disc Two\08. Brillant Disguise.wav

     Peak level 98.9 %
     Extraction speed 7.4 X
     Track quality 100.0 %
     Test CRC A96DB723
     Copy CRC A96DB723
     Track not present in AccurateRip database
     Copy OK

Track  9

     Filename E:\Torrents of Autumn\Springsteen, Bruce [2018] Springsteen on Broadway (2-CD set)\Disc Two\09. Long Time Coming (intro).wav

     Peak level 64.2 %
     Extraction speed 7.2 X
     Track quality 100.0 %
     Test CRC FC9CE0CE
     Copy CRC FC9CE0CE
     Track not present in AccurateRip database
     Copy OK

Track 10

     Filename E:\Torrents of Autumn\Springsteen, Bruce [2018] Springsteen on Broadway (2-CD set)\Disc Two\10. Long Time Coming.wav

     Peak level 98.9 %
     Extraction speed 7.5 X
     Track quality 100.0 %
     Test CRC 72D4E90E
     Copy CRC 72D4E90E
     Track not present in AccurateRip database
     Copy OK

Track 11

     Filename E:\Torrents of Autumn\Springsteen, Bruce [2018] Springsteen on Broadway (2-CD set)\Disc Two\11. The Ghost of Tom Joad (intro).wav

     Peak level 75.2 %
     Extraction speed 7.5 X
     Track quality 100.0 %
     Test CRC 9AC6A429
     Copy CRC 9AC6A429
     Track not present in AccurateRip database
     Copy OK

Track 12

     Filename E:\Torrents of Autumn\Springsteen, Bruce [2018] Springsteen on Broadway (2-CD set)\Disc Two\12. The Ghost of Tom Joad.wav

     Peak level 98.5 %
     Extraction speed 8.1 X
     Track quality 100.0 %
     Test CRC 0E4E04B3
     Copy CRC 0E4E04B3
     Track not present in AccurateRip database
     Copy OK

Track 13

     Filename E:\Torrents of Autumn\Springsteen, Bruce [2018] Springsteen on Broadway (2-CD set)\Disc Two\13. The Rising.wav

     Peak level 91.2 %
     Extraction speed 8.3 X
     Track quality 100.0 %
     Test CRC 8C5D752B
     Copy CRC 8C5D752B
     Track not present in AccurateRip database
     Copy OK

Track 14

     Filename E:\Torrents of Autumn\Springsteen, Bruce [2018] Springsteen on Broadway (2-CD set)\Disc Two\14. Dancing in the Dark (intro).wav

     Peak level 98.8 %
     Extraction speed 7.8 X
     Track quality 100.0 %
     Test CRC 36BA3745
     Copy CRC 36BA3745
     Track not present in AccurateRip database
     Copy OK

Track 15

     Filename E:\Torrents of Autumn\Springsteen, Bruce [2018] Springsteen on Broadway (2-CD set)\Disc Two\15. Dancing in the Dark.wav

     Peak level 99.0 %
     Extraction speed 7.5 X
     Track quality 99.9 %
     Test CRC E3EA0B0A
     Copy CRC E3EA0B0A
     Track not present in AccurateRip database
     Copy OK

Track 16

     Filename E:\Torrents of Autumn\Springsteen, Bruce [2018] Springsteen on Broadway (2-CD set)\Disc Two\16. Land of Hope and Dreams.wav

     Peak level 98.8 %
     Extraction speed 8.6 X
     Track quality 100.0 %
     Test CRC 8B3193D9
     Copy CRC 8B3193D9
     Track not present in AccurateRip database
     Copy OK

Track 17

     Filename E:\Torrents of Autumn\Springsteen, Bruce [2018] Springsteen on Broadway (2-CD set)\Disc Two\17. Born to Run (intro).wav

     Peak level 84.1 %
     Extraction speed 9.5 X
     Track quality 100.0 %
     Test CRC 23EEFE93
     Copy CRC 23EEFE93
     Track not present in AccurateRip database
     Copy OK

Track 18

     Filename E:\Torrents of Autumn\Springsteen, Bruce [2018] Springsteen on Broadway (2-CD set)\Disc Two\18. Born to Run.wav

     Peak level 98.8 %
     Extraction speed 9.4 X
     Track quality 100.0 %
     Test CRC 07F2D1B9
     Copy CRC 07F2D1B9
     Track not present in AccurateRip database
     Copy OK


None of the tracks are present in the AccurateRip database

No errors occurred

End of status report

---- CUETools DB Plugin V2.1.6

[CTDB TOCID: TXJ_yvzFppemmtvX4gih4QKigAU-] found
Submit result: TXJ_yvzFppemmtvX4gih4QKigAU- has been confirmed
Track | CTDB Status
  1   | (67/67) Accurately ripped
  2   | (67/67) Accurately ripped
  3   | (67/67) Accurately ripped
  4   | (67/67) Accurately ripped
  5   | (67/67) Accurately ripped
  6   | (67/67) Accurately ripped
  7   | (67/67) Accurately ripped
  8   | (67/67) Accurately ripped
  9   | (67/67) Accurately ripped
 10   | (67/67) Accurately ripped
 11   | (67/67) Accurately ripped
 12   | (66/67) Accurately ripped
 13   | (67/67) Accurately ripped
 14   | (67/67) Accurately ripped
 15   | (67/67) Accurately ripped
 16   | (67/67) Accurately ripped
 17   | (67/67) Accurately ripped
 18   | (65/67) Accurately ripped


==== Log checksum 1B18681F69294416AD8DD588E83C565B2034768768B605D18C2CB53A73F6377E ====



Create a new paste based on this one


Comments: