[ create a new paste ] login | about

Link: http://codepad.org/yCuHhofu    [ raw code | fork ]

Plain Text, pasted on May 13:
[CUETools log; Date: 5/13/2016 6:59:15 AM; Version: 2.1.5]
[CTDB TOCID: 4IM9xs1B16lClkwUOE0lZP9umqs-] found.
Track | CTDB Status
  1   | (40/40) Accurately ripped
  2   | (40/40) Accurately ripped
  3   | (40/40) Accurately ripped
  4   | (40/40) Accurately ripped
  5   | (40/40) Accurately ripped
  6   | (40/40) Accurately ripped
  7   | (40/40) Accurately ripped
  8   | (40/40) Accurately ripped
  9   | (40/40) Accurately ripped
 10   | (40/40) Accurately ripped
 11   | (40/40) Accurately ripped
 12   | (40/40) Accurately ripped
 13   | (40/40) Accurately ripped
 14   | (40/40) Accurately ripped
 15   | (40/40) Accurately ripped
 16   | (40/40) Accurately ripped
 17   | (40/40) Accurately ripped
 18   | (40/40) Accurately ripped
 19   | (40/40) Accurately ripped
 20   | (39/40) Accurately ripped
 21   | (39/40) Accurately ripped
 22   | (39/40) Accurately ripped
 23   | (40/40) Accurately ripped
 24   | (39/40) Accurately ripped
[AccurateRip ID: 0039a305-03d3765b-5c0ee218] found.
Track   [  CRC   |   V2   ] Status
 01     [c108344f|808f1394] (14+10/71) Accurately ripped
 02     [cd15497b|0c5c38cf] (15+10/73) Accurately ripped
 03     [6771ba9d|965392f2] (15+10/73) Accurately ripped
 04     [c8160a1a|fb993416] (15+10/73) Accurately ripped
 05     [08997ba3|ece060ba] (15+10/72) Accurately ripped
 06     [22af48be|db271007] (15+10/71) Accurately ripped
 07     [3d0bae8c|c7a1e1b3] (15+10/71) Accurately ripped
 08     [3a1e0bb5|f550e3d3] (14+10/70) Accurately ripped
 09     [8dd68c64|ab1f8606] (13+10/67) Accurately ripped
 10     [c020c634|7355c408] (15+10/69) Accurately ripped
 11     [cc1e2985|f78aa3b8] (15+10/69) Accurately ripped
 12     [7a3dd94b|3d4a2f88] (15+10/70) Accurately ripped
 13     [0d349c88|e41bb97a] (15+10/70) Accurately ripped
 14     [dc835859|f9aa2a39] (15+10/71) Accurately ripped
 15     [83557389|242a55c9] (15+10/70) Accurately ripped
 16     [97c371f7|103ffa9a] (14+10/70) Accurately ripped
 17     [01fa6196|459edbe3] (14+10/69) Accurately ripped
 18     [cc70cd77|929be180] (14+10/69) Accurately ripped
 19     [85c81b8e|8e2585c1] (14+10/69) Accurately ripped
 20     [1b287485|28c8f9f7] (14+10/70) Accurately ripped
 21     [d36f6777|092d434e] (14+10/70) Accurately ripped
 22     [e26e0531|4e727bd9] (14+10/71) Accurately ripped
 23     [8fb78b1a|c0883790] (14+10/69) Accurately ripped
 24     [eab1d8ef|304aecd9] (13+10/67) Accurately ripped
Offsetted by 22:
 01     [8d83e889] (02/71) Accurately ripped
 02     [bf223623] (02/73) Accurately ripped
 03     [3d411181] (02/73) Accurately ripped
 04     [42b0dcde] (02/73) Accurately ripped
 05     [f9c217c9] (02/72) Accurately ripped
 06     [cc94cf8c] (02/71) Accurately ripped
 07     [ec78774c] (02/71) Accurately ripped
 08     [ea7dd7c1] (02/70) Accurately ripped
 09     [26ef8b74] (02/67) Accurately ripped
 10     [091d47fa] (02/69) Accurately ripped
 11     [3e99ad09] (02/69) Accurately ripped
 12     [60228865] (02/70) Accurately ripped
 13     [4c4241e8] (02/70) Accurately ripped
 14     [3033a237] (02/71) Accurately ripped
 15     [51b873eb] (02/70) Accurately ripped
 16     [3187f37f] (02/70) Accurately ripped
 17     [fe1d3034] (02/69) Accurately ripped
 18     [bff87527] (02/69) Accurately ripped
 19     [be071792] (02/69) Accurately ripped
 20     [16c60b7f] (02/70) Accurately ripped
 21     [96763be5] (02/70) Accurately ripped
 22     [706105ae] (02/71) Accurately ripped
 23     [71655aff] (02/69) Accurately ripped
 24     [ec7dbe7a] (02/67) Accurately ripped
Offsetted by 58:
 01     [964e5545] (17/71) Accurately ripped
 02     [bf947393] (18/73) Accurately ripped
 03     [f8374299] (17/73) Accurately ripped
 04     [96f40736] (17/73) Accurately ripped
 05     [ca33174d] (17/72) Accurately ripped
 06     [56f52080] (17/71) Accurately ripped
 07     [f441bfcc] (16/71) Accurately ripped
 08     [7f77b149] (16/70) Accurately ripped
 09     [50012cd4] (16/67) Accurately ripped
 10     [97d1bf3e] (16/69) Accurately ripped
 11     [287b0fe1] (16/69) Accurately ripped
 12     [92817861] (17/70) Accurately ripped
 13     [b36fdc28] (16/70) Accurately ripped
 14     [8a99ec8b] (17/71) Accurately ripped
 15     [2f14a317] (16/70) Accurately ripped
 16     [a183b02f] (17/70) Accurately ripped
 17     [836d6b08] (16/69) Accurately ripped
 18     [c2d67047] (16/69) Accurately ripped
 19     [5fe2856a] (17/69) Accurately ripped
 20     [e10dbcbb] (17/70) Accurately ripped
 21     [32aff499] (17/70) Accurately ripped
 22     [9eac513e] (17/71) Accurately ripped
 23     [f6176d27] (17/69) Accurately ripped
 24     [d97e5416] (16/67) Accurately ripped
Offsetted by 64:
 01     [4270120f] (00/71) No match (V2 was not tested)
 02     [ea52287b] (00/73) No match (V2 was not tested)
 03     [ecb5a01d] (00/73) No match (V2 was not tested)
 04     [cfa9e39a] (00/73) No match (V2 was not tested)
 05     [979b41e3] (00/72) No match (V2 was not tested)
 06     [6e052dfe] (00/71) No match (V2 was not tested)
 07     [f58df68c] (00/71) No match (V2 was not tested)
 08     [984c0035] (00/70) No match (V2 was not tested)
 09     [d6d97264] (00/67) No match (V2 was not tested)
 10     [da452874] (00/69) No match (V2 was not tested)
 11     [a4cb4b05] (00/69) No match (V2 was not tested)
 12     [45914b0b] (00/70) No match (V2 was not tested)
 13     [c4a22088] (00/70) No match (V2 was not tested)
 14     [4455a399] (00/71) No match (V2 was not tested)
 15     [7ea40049] (00/70) No match (V2 was not tested)
 16     [b42da4f7] (00/70) No match (V2 was not tested)
 17     [99a574d6] (00/69) No match (V2 was not tested)
 18     [edfb6f77] (00/69) No match (V2 was not tested)
 19     [fadc6d0e] (00/69) No match (V2 was not tested)
 20     [82c45a45] (00/70) No match (V2 was not tested)
 21     [220ee8b7] (00/70) No match (V2 was not tested)
 22     [8727173a] (00/71) No match (V2 was not tested)
 23     [e36be317] (00/69) No match (V2 was not tested)
 24     [e2fce8d1] (00/67) No match (V2 was not tested)

Track Peak [ CRC32  ] [W/O NULL] [  LOG   ]
 --  100.0 [B00E55F1] [E1F099A3]   CRC32   
 01   93.0 [F8BCAAA8] [008C0697]           
 02   93.5 [4AB3D016] [2424CB3C]           
 03   99.9 [8BB70942] [F916E403]           
 04   99.1 [623750A9] [97EBE8BF]           
 05   99.5 [7F887456] [9E8154A5]           
 06   98.1 [D3FB78D5] [D7F9D598]           
 07  100.0 [7A4ADE00] [2AD1DA36]           
 08   98.8 [A1953E04] [5EFC9C5D]           
 09   97.9 [7FD66934] [9EC1CEDB]           
 10   99.9 [FA549D0F] [48871CEE]           
 11   97.9 [B0D28696] [86D23B0F]           
 12   99.1 [7A7CE6FA] [BF860102]           
 13   96.5 [493EB213] [722BCD66]           
 14   89.9 [7BCD25D2] [AEDDF1C3]           
 15   93.9 [9FF85C91] [7104F37A]           
 16   99.9 [430C68D1] [750E8C39]           
 17   97.3 [B9B9F872] [2049195E]           
 18   99.9 [4081ECE6] [F00F01B5]           
 19   95.6 [2C94C8E3] [8631DDF1]           
 20   96.0 [23E6A097] [45146D5C]           
 21   86.3 [08CB7F2D] [0390DBD5]           
 22   97.5 [95405B30] [37E87511]           
 23   93.0 [BCA3BD43] [FEB8140B]           
 24   98.0 [4F0E0328] [62BE740E]           



Create a new paste based on this one


Comments: