[ create a new paste ] login | about

Link: http://codepad.org/yHXE80zF    [ raw code | fork ]

Plain Text, pasted on Dec 23:
16/44
:::::

foobar2000 1.6 / Dynamic Range Meter 1.1.1
log date: 2020-12-23 19:42:58

--------------------------------------------------------------------------------
Analyzed: The Temptations / The Temptations' Christmas Card
--------------------------------------------------------------------------------

DR         Peak         RMS     Duration Track
--------------------------------------------------------------------------------
DR12       0.00 dB   -13.79 dB      3:00 01-Rudolph The Red-Nosed Reindeer
DR11       0.00 dB   -12.90 dB      3:20 02-My Christmas Tree
DR11       0.00 dB   -13.03 dB      3:25 03-Santa Claus Is Comin' To Town
DR11       0.00 dB   -13.48 dB      2:25 04-Silent Night
DR10       0.00 dB   -13.00 dB      3:27 05-Someday At Christmas
DR11       0.00 dB   -13.37 dB      4:27 06-White Christmas
DR11       0.00 dB   -12.87 dB      3:36 07-Let It Snow
DR10       0.00 dB   -11.81 dB      2:14 08-Silver Bells
DR10       0.00 dB   -11.79 dB      3:34 09-The Christmas Song
DR10       0.00 dB   -12.12 dB      3:24 10-The Little Drummer Boy
--------------------------------------------------------------------------------

Number of tracks:  10
Official DR value: DR11

Samplerate:        44100 Hz
Channels:          2
Bits per sample:   16
Bitrate:           938 kbps
Codec:             FLAC
================================================================================



24/96
:::::

foobar2000 1.6 / Dynamic Range Meter 1.1.1
log date: 2020-12-23 19:36:56

--------------------------------------------------------------------------------
Analyzed: The Temptations / The Temptations' Christmas Card
--------------------------------------------------------------------------------

DR         Peak         RMS     Duration Track
--------------------------------------------------------------------------------
DR12       0.00 dB   -13.79 dB      3:00 01-Rudolph The Red-Nosed Reindeer
DR11       0.00 dB   -12.90 dB      3:20 02-My Christmas Tree
DR11       0.00 dB   -13.03 dB      3:25 03-Santa Claus Is Comin' To Town
DR11       0.00 dB   -13.48 dB      2:25 04-Silent Night
DR11       0.00 dB   -13.00 dB      3:27 05-Someday At Christmas
DR11       0.00 dB   -13.37 dB      4:27 06-White Christmas
DR11       0.00 dB   -12.92 dB      3:36 07-Let It Snow
DR10       0.00 dB   -11.80 dB      2:14 08-Silver Bells
DR10       0.00 dB   -11.79 dB      3:34 09-The Christmas Song
DR11       0.00 dB   -12.18 dB      3:24 10-The Little Drummer Boy
--------------------------------------------------------------------------------

Number of tracks:  10
Official DR value: DR11

Samplerate:        96000 Hz
Channels:          2
Bits per sample:   24
Bitrate:           3292 kbps
Codec:             FLAC
================================================================================




Create a new paste based on this one


Comments: