[ create a new paste ] login | about

Link: http://codepad.org/yIOtwtpJ    [ raw code | fork ]

Plain Text, pasted on Sep 18:
foobar2000 1.3.17 / Dynamic Range Meter 1.1.1
log date: 2018-09-18 09:30:13

--------------------------------------------------------------------------------
Analyzed: Roger Waters / Is This the Life We Really Want?
--------------------------------------------------------------------------------

DR         Peak         RMS     Duration Track
--------------------------------------------------------------------------------
DR11      -8.77 dB   -24.60 dB      1:40 01-When We Were Young
DR12      -1.96 dB   -17.43 dB      4:28 02-Deja Vu
DR12      -2.15 dB   -18.78 dB      4:15 03-The Last Refugee
DR10      -1.34 dB   -15.88 dB      6:49 04-Picture That
DR11      -1.50 dB   -18.90 dB      4:59 05-Broken Bones
DR13      -2.80 dB   -19.87 dB      6:07 06-Is This The Life We Really Want
DR11      -2.47 dB   -16.80 dB      5:31 07-Bird In A Gale
DR11      -3.91 dB   -18.10 dB      6:09 08-The Most Beautiful Girl In The World
DR10      -1.81 dB   -14.95 dB      5:17 09-Smell The Roses
DR12      -3.45 dB   -18.79 dB      4:57 10-Wait For Her
DR13      -5.35 dB   -21.53 dB      1:06 11-Oceans Apart
DR12      -2.86 dB   -19.23 dB      3:16 12-A Part Of Me Died
--------------------------------------------------------------------------------

Number of tracks:  12
Official DR value: DR12

Samplerate:        192000 Hz
Channels:          2
Bits per sample:   24
Bitrate:           4942 kbps
Codec:             FLAC
================================================================================




Create a new paste based on this one


Comments: