[ create a new paste ] login | about

Link: http://codepad.org/yKfHdSoX    [ raw code | fork ]

Plain Text, pasted on Jul 19:
foobar2000 1.4.4 / Dynamic Range Meter 1.1.1
log date: 2019-07-18 16:17:18

--------------------------------------------------------------------------------
Analyzed: Suzanne Vega / Suzanne Vega
--------------------------------------------------------------------------------

DR         Peak         RMS     Duration Track
--------------------------------------------------------------------------------
DR11      -5.78 dB   -19.10 dB      2:50 01-Cracking
DR10      -5.52 dB   -19.04 dB      2:38 02-Freeze Tag
DR12      -5.46 dB   -19.76 dB      3:43 03-Marlene On The Wall
DR12      -5.59 dB   -20.11 dB      3:55 04-Small Blue Thing
DR12      -5.55 dB   -20.39 dB      3:51 05-Straight Lines
DR11      -5.25 dB   -19.07 dB      3:30 06-Undertow
DR11      -5.52 dB   -19.61 dB      3:42 07-Some Journey
DR12      -5.52 dB   -20.98 dB      4:51 08-The Queen And The Soldier
DR13      -5.84 dB   -20.76 dB      3:38 09-Knight Moves
DR13      -5.41 dB   -19.51 dB      3:22 10-Neighborhood Girls
--------------------------------------------------------------------------------

Number of tracks:  10
Official DR value: DR12

Samplerate:        2822400 Hz / PCM Samplerate: 176400 Hz
Channels:          2
Bits per sample:   1
Bitrate:           5645 kbps
Codec:             DSD64
================================================================================




Create a new paste based on this one


Comments: