[ create a new paste ] login | about

Link: http://codepad.org/yOn3inCs    [ raw code | fork ]

Plain Text, pasted on Dec 12:
CD 1
->
[CUETools log; Date: 12/12/2019 9:21:15 PM; Version: 2.1.7]
[CTDB TOCID: 50BpB9JSVw.ZttTp.SyU.cgV76Q-] found.
Track | CTDB Status
  1   | (85/91) Accurately ripped
  2   | (85/91) Accurately ripped
  3   | (85/91) Accurately ripped
  4   | (85/91) Accurately ripped
  5   | (85/91) Accurately ripped
  6   | (85/91) Accurately ripped
  7   | (85/91) Accurately ripped
  8   | (85/91) Accurately ripped
  9   | (85/91) Accurately ripped
 10   | (84/91) Accurately ripped
[AccurateRip ID: 001e6736-00f2f240-87124d0a] found.
Track   [  CRC   |   V2   ] Status
 01     [34694f52|2a97683f] (00+08/11) Accurately ripped
 02     [9717079a|29fa70a0] (00+08/11) Accurately ripped
 03     [5da7f75d|eae7a6fe] (00+08/11) Accurately ripped
 04     [0790a5a1|aeab4490] (00+08/11) Accurately ripped
 05     [7e261342|c1e6d484] (00+08/11) Accurately ripped
 06     [c97ae32e|09ef4298] (00+08/11) Accurately ripped
 07     [60f82eb4|031fbeaf] (00+08/11) Accurately ripped
 08     [278d71a7|0f87af68] (00+08/11) Accurately ripped
 09     [339c542d|b30c8d9d] (00+08/11) Accurately ripped
 10     [1fb45bfc|b676f367] (00+08/11) Accurately ripped
Offsetted by -12:
 01     [cc043ecc] (00/11) No match (V2 was not tested)
 02     [d100eff1] (00/11) No match (V2 was not tested)
 03     [fa15db2c] (00/11) No match (V2 was not tested)
 04     [12d7b2bf] (00/11) No match (V2 was not tested)
 05     [fa3c7ecd] (00/11) No match (V2 was not tested)
 06     [fefcab53] (00/11) No match (V2 was not tested)
 07     [3c108d3c] (00/11) No match (V2 was not tested)
 08     [ea59961a] (00/11) No match (V2 was not tested)
 09     [fd1bf020] (00/11) No match (V2 was not tested)
 10     [9e8c36a9] (00/11) No match (V2 was not tested)

Track Peak [ CRC32  ] [W/O NULL] [  LOG   ]
 --  100.0 [CF1A195E] [52A58632]   CRC32   
 01   99.2 [A3446C9B] [505A1B8E]           
 02   97.8 [F7D159CF] [BC667BF0]           
 03   99.1 [F264AE06] [05798424]           
 04   78.8 [319F451E] [317D9F5B]           
 05  100.0 [9951DF62] [B421ABDE]           
 06   99.2 [77D486F3] [CAA5DAA4]           
 07   97.8 [2DFD6269] [846FFA20]           
 08   99.2 [F2966096] [75528243]           
 09   65.9 [732749AA] [9B4E7FBF]           
 10  100.0 [6C89DF36] [4D013FB6]           
->
=========================================================================================================================================================
->
CD 2
->
[CUETools log; Date: 12/12/2019 9:21:08 PM; Version: 2.1.7]
[CTDB TOCID: Id4OdEfYaztkyZ4ZUx2NLk449wg-] found.
Track | CTDB Status
  1   | (51/51) Accurately ripped
  2   | (51/51) Accurately ripped
  3   | (51/51) Accurately ripped
  4   | (51/51) Accurately ripped
  5   | (51/51) Accurately ripped
  6   | (51/51) Accurately ripped
  7   | (51/51) Accurately ripped
  8   | (51/51) Accurately ripped
  9   | (51/51) Accurately ripped
[AccurateRip ID: 00132aa9-008dd2f7-7e0d5709] found.
Track   [  CRC   |   V2   ] Status
 01     [4c6a4a48|5c58db68] (00+03/10) Accurately ripped
 02     [4d9f053b|dd8b2637] (00+03/10) Accurately ripped
 03     [da7be8e7|140f26e8] (00+03/10) Accurately ripped
 04     [b564d684|bcaf49bd] (00+03/10) Accurately ripped
 05     [59ef7250|755978aa] (00+03/10) Accurately ripped
 06     [a33ebf5e|cc7a5e8b] (00+03/10) Accurately ripped
 07     [7d932b04|693dc76c] (00+03/10) Accurately ripped
 08     [55c6bba8|17fd2f79] (00+03/10) Accurately ripped
 09     [b51f3372|c13db5d6] (00+03/10) Accurately ripped
Offsetted by 12:
 01     [2fa64b6f] (00/10) No match (V2 was not tested)
 02     [2a55f059] (00/10) No match (V2 was not tested)
 03     [9d568b25] (00/10) No match (V2 was not tested)
 04     [ee79762f] (00/10) No match (V2 was not tested)
 05     [56802fc0] (00/10) No match (V2 was not tested)
 06     [a45d1d41] (00/10) No match (V2 was not tested)
 07     [355857d5] (00/10) No match (V2 was not tested)
 08     [28875745] (00/10) No match (V2 was not tested)
 09     [9aed5b24] (00/10) No match (V2 was not tested)

Track Peak [ CRC32  ] [W/O NULL] [  LOG   ]
 --   95.2 [9F247D33] [7AD9F4E0]   CRC32   
 01   63.4 [3081D0A5] [F634B2B2]           
 02   76.2 [87DE0DB2] [BD7D4D3A]           
 03   75.2 [FB3C4DDE] [947DDD2A]           
 04   69.9 [B8C215EF] [F54CF345]           
 05   87.2 [C16CB62F] [3B241B39]           
 06   81.6 [243D2592] [A1046FA0]           
 07   58.3 [E488B388] [EF2EE12A]           
 08   91.0 [90D46C4D] [833A7B58]           
 09   95.2 [1EE2C309] [C0027D82]           
->
=========================================================================================================================================================
->
CD 3
->
[CUETools log; Date: 12/12/2019 9:21:20 PM; Version: 2.1.7]
[CTDB TOCID: NpPcf2VGfLkVm55E2shmlOODJ4M-] found.
Track | CTDB Status
  1   | (46/50) Accurately ripped
  2   | (46/50) Accurately ripped
  3   | (46/50) Accurately ripped
  4   | (46/50) Accurately ripped
  5   | (46/50) Accurately ripped
  6   | (46/50) Accurately ripped
  7   | (46/50) Accurately ripped
  8   | (46/50) Accurately ripped
  9   | (46/50) Accurately ripped
 10   | (46/50) Accurately ripped
[AccurateRip ID: 001d8e56-00ea8916-9010da0a] found.
Track   [  CRC   |   V2   ] Status
 01     [df7ca4d0|60340a05] (0+6/9) Accurately ripped
 02     [0bf931a7|39853fe4] (0+6/9) Accurately ripped
 03     [ccc3dfc2|d372fbf4] (0+6/9) Accurately ripped
 04     [dc47fe1a|8922bcca] (0+6/9) Accurately ripped
 05     [26caf932|a27e31ee] (0+6/9) Accurately ripped
 06     [97372f02|6f9e7e6b] (0+6/9) Accurately ripped
 07     [968ded26|94257060] (0+6/9) Accurately ripped
 08     [2c4fb5a5|96cba82d] (0+6/9) Accurately ripped
 09     [875e5ce5|6987439b] (0+6/9) Accurately ripped
 10     [83736fc2|aea753af] (0+6/9) Accurately ripped
Offsetted by -12:
 01     [e4f48e36] (0/9) No match (V2 was not tested)
 02     [25b85d61] (0/9) No match (V2 was not tested)
 03     [dfa26f57] (0/9) No match (V2 was not tested)
 04     [c65979ae] (0/9) No match (V2 was not tested)
 05     [ca78bf89] (0/9) No match (V2 was not tested)
 06     [466161e1] (0/9) No match (V2 was not tested)
 07     [f56899f0] (0/9) No match (V2 was not tested)
 08     [cc1646ad] (0/9) No match (V2 was not tested)
 09     [fc1aaf53] (0/9) No match (V2 was not tested)
 10     [10313947] (0/9) No match (V2 was not tested)

Track Peak [ CRC32  ] [W/O NULL] [  LOG   ]
 --  100.0 [7FFDB396] [6E6F6BA5]   CRC32   
 01   99.9 [3CBFD1E6] [E5BD48F4]           
 02   59.9 [830B929C] [DBC36902]           
 03   97.5 [575FD33F] [690E32BC]           
 04   61.4 [1588C6BA] [67010C31]           
 05  100.0 [0EAA7BA5] [0DB7C6C3]           
 06   69.7 [58464BF1] [415B2C27]           
 07   88.2 [D24780C2] [AAFB32D0]           
 08   88.5 [66D3BB7B] [5D1C2599]           
 09   81.4 [7AA3753A] [49320BBB]           
 10   83.5 [6C8A5D0D] [499D1557]           




Create a new paste based on this one


Comments: