[ create a new paste ] login | about

Link: http://codepad.org/yVv8vMPX    [ raw code | fork ]

Plain Text, pasted on Sep 21:
foobar2000 1.4 / Dynamic Range Meter 1.1.1
log date: 2018-09-20 12:23:30

--------------------------------------------------------------------------------
Analyzed: Gene Clark / The Lost Studio Sessions 1964-1982 (Hybrid SACD)
--------------------------------------------------------------------------------

DR         Peak         RMS     Duration Track
--------------------------------------------------------------------------------
DR11      -0.75 dB   -16.74 dB      2:41 01-The Way I Am
DR11      -1.32 dB   -15.66 dB      1:53 02-I'd Feel Better
DR12      -2.14 dB   -18.11 dB      3:08 03-That Girl
DR15      -1.25 dB   -19.14 dB      3:44 04-A Worried Heart
DR11      -1.60 dB   -16.27 dB      2:33 05-If There's No Love
DR12      -1.28 dB   -15.95 dB      3:22 06-Back Street Mirror
DR12      -1.18 dB   -14.63 dB      3:02 07-Don't Let It Fall Through
DR14      -0.19 dB   -17.47 dB      3:14 08-Back To Earth Again
DR14      -0.31 dB   -17.77 dB      3:05 09-The Lighthouse
DR12      -0.46 dB   -15.41 dB      2:58 10-The Awakening Within
DR12      -0.02 dB   -15.88 dB      2:26 11-Sweet Adrienne
DR14      -0.02 dB   -17.27 dB      3:21 12-Walking Through This Lifetime
DR13      -0.78 dB   -18.23 dB      3:29 13-The Sparrow
DR11      -1.60 dB   -16.05 dB      1:58 14-Only Yesterday's Gone
DR11      -1.95 dB   -14.59 dB      3:07 15-She Darked the Sun
DR11      -1.19 dB   -14.52 dB      3:18 16-Roll in My Sweet Baby's Arms
DR11      -1.85 dB   -15.73 dB      1:55 17-She Don't Care About Time
DR10      -2.08 dB   -14.81 dB      4:30 18-Don't This Road Look Rough and Rocky
DR12      -1.49 dB   -15.87 dB      3:10 19-Bars Have Made a Presoner Out Of Me
DR12      -0.02 dB   -13.64 dB      2:42 20-One Hundred Years From Now
DR9       -1.91 dB   -13.11 dB      3:26 21-(The) Letter
DR11      -0.02 dB   -12.42 dB      2:14 22-Still Feeling Blue
DR12      -0.03 dB   -15.17 dB      3:58 23-No Memories Hangin' Round
DR10      -0.02 dB   -12.45 dB      2:36 24-I'll Feel A Whole Lot Better
--------------------------------------------------------------------------------

Number of tracks:  24
Official DR value: DR12

Samplerate:        88200 Hz
Channels:          2
Bits per sample:   24
Bitrate:           2836 kbps
Codec:             FLAC
================================================================================




Create a new paste based on this one


Comments: