[ create a new paste ] login | about

Link: http://codepad.org/yXwCBmki    [ raw code | fork ]

Plain Text, pasted on Jan 3:
foobar2000 1.2.8 / Dynamic Range Meter 1.1.1
log date: 2013-10-23 12:13:37

--------------------------------------------------------------------------------
Analyzed: 10cc / Welcome To The Top Of The World - SA-CD SHM Version Compilation (1)
          Ella Fitzgerald & Luis Armstrong / Welcome To The Top Of The World - SA-CD SHM Version Compilation (2)
          Hector Berlioz / Welcome To The Top Of The World - SA-CD SHM Version Compilation (3)
          Igor Stravinsky / Welcome To The Top Of The World - SA-CD SHM Version Compilation (4)
          Johannes Brahms / Welcome To The Top Of The World - SA-CD SHM Version Compilation (5)
          Marvin Gaye / Welcome To The Top Of The World - SA-CD SHM Version Compilation (6)
          Miles Davis / Welcome To The Top Of The World - SA-CD SHM Version Compilation (7)
          Sonny Rollins / Welcome To The Top Of The World - SA-CD SHM Version Compilation (8)
          Stan Getz & João Gilberto / Welcome To The Top Of The World - SA-CD SHM Version Compilation (9)
          The Allman Brothers Band / Welcome To The Top Of The World - SA-CD SHM Version Compilation (10)
          Wishbone Ash / Welcome To The Top Of The World - SA-CD SHM Version Compilation (11)
--------------------------------------------------------------------------------

DR         Peak         RMS     Duration Track
--------------------------------------------------------------------------------
DR11      -0.88 dB   -15.16 dB      6:10 02-I'm Not In Love
DR14      -0.33 dB   -18.46 dB      4:44 06-They Can't Take That Away From Me
DR12      -0.86 dB   -18.58 dB      6:49 10-Symphonie Fantastique, op.14 - 4. Marche Au Supplice
DR13      -0.01 dB   -19.24 dB      5:42 11-Le Sacre Du Primptemps (Version De 1947) - Glorification De L'Eule - Evocation Des Ancêtres - Action Rituelle Des Ancêtres
DR13      -1.71 dB   -22.39 dB     11:37 09-Ein Deutsches Requiem, op.45 - 1. Selig Sind, Die Da Lied Tragen Wiener Sinverein
DR11      -2.21 dB   -14.78 dB      3:18 01-Mercy Mercy Me (The Ecology)
DR12      -0.84 dB   -16.77 dB      5:56 07-Oleo
DR15      -0.86 dB   -18.06 dB      6:46 08-St. Thomas
DR10      -4.03 dB   -17.32 dB      4:18 05-Corcovado
DR12      -0.46 dB   -15.99 dB      8:54 04-Stormy Monday
DR12      -1.06 dB   -15.76 dB      6:59 03-Sometime World
--------------------------------------------------------------------------------

Number of tracks:  11
Official DR value: DR12

Samplerate:        88200 Hz
Channels:          2
Bits per sample:   24
Bitrate:           2729 kbps
Codec:             FLAC
================================================================================




Create a new paste based on this one


Comments: