[ create a new paste ] login | about

Link: http://codepad.org/yZa01AGY    [ raw code | fork ]

Plain Text, pasted on Dec 28:
foobar2000 1.3.8 / Dynamic Range Meter 1.1.1
log date: 2016-10-22 18:27:37

--------------------------------------------------------------------------------
Analyzed: The Rolling Stones / 12 X 5
--------------------------------------------------------------------------------

DR         Peak         RMS     Duration Track
--------------------------------------------------------------------------------
DR10       0.00 dB   -10.87 dB      3:04 01-Around And Around
DR9        0.00 dB   -10.58 dB      2:50 02-Confessin' The Blues
DR9        0.00 dB   -11.27 dB      2:39 03-Empty Heart
DR9        0.00 dB   -10.66 dB      2:54 04-Time Is On My Side
DR10       0.00 dB   -12.84 dB      2:32 05-Good Times, Bad Times
DR9        0.00 dB   -11.01 dB      3:27 06-It's All Over Now
DR10       0.00 dB   -11.41 dB      3:40 07-2120 South Michigan Avenue
DR10      -0.03 dB   -11.83 dB      2:48 08-Under The Boardwalk
DR10      -0.06 dB   -11.55 dB      2:30 09-Congratulations
DR10      -0.43 dB   -12.43 dB      2:06 10-Grown Up Wrong
DR10       0.00 dB   -11.32 dB      2:05 11-If You Need Me
DR10       0.00 dB   -11.90 dB      1:50 12-Susie Q
--------------------------------------------------------------------------------

Number of tracks:  12
Official DR value: DR10

Samplerate:        192000 Hz
Channels:          2
Bits per sample:   24
Bitrate:           3356 kbps
Codec:             FLAC
================================================================================




Create a new paste based on this one


Comments: