[ create a new paste ] login | about

Link: http://codepad.org/ya8A0jSG    [ raw code | fork ]

Plain Text, pasted on Jun 6:
foobar2000 1.3.15 / Dynamic Range Meter 1.1.1
log date: 2017-06-05 21:35:39

--------------------------------------------------------------------------------
Analyzed: Duke Ellington / Blues In Orbit [MFSL]
--------------------------------------------------------------------------------

DR         Peak         RMS     Duration Track
--------------------------------------------------------------------------------
DR13      -0.04 dB   -16.02 dB      2:55 01-Three J's Blues
DR12       0.00 dB   -16.44 dB      2:39 02-Smada
DR12       0.00 dB   -14.81 dB      3:29 03-Pie Eye's Blues
DR12      -0.21 dB   -16.74 dB      4:03 04-Sweet And Pungent
DR12      -0.48 dB   -15.42 dB      4:53 05-C Jam Blues
DR12      -0.19 dB   -15.71 dB      2:43 06-In A Mellow Tone
DR11      -2.93 dB   -18.31 dB      3:42 07-Blues In Blueprint
DR13      -0.75 dB   -18.68 dB      3:09 08-The Swingers Get The Blues Too
DR11      -0.09 dB   -15.35 dB      3:55 09-The Swinger's Jump
DR14      -1.04 dB   -18.47 dB      2:29 10-Blues In Orbit
DR12      -0.29 dB   -14.99 dB      2:27 11-Villes Ville Is The Place, Man
--------------------------------------------------------------------------------

Number of tracks:  11
Official DR value: DR12

Samplerate:        44100 Hz
Channels:          2
Bits per sample:   16
Bitrate:           969 kbps
Codec:             FLAC
================================================================================




Create a new paste based on this one


Comments: