[ create a new paste ] login | about

Link: http://codepad.org/ycKftEZz    [ raw code | fork ]

Plain Text, pasted on May 9:
[CUETools log; Date: 5/10/2016 1:05:09 AM; Version: 2.1.5]
[CTDB TOCID: 08QPnlb2ZWm9huiZaDCbL3h9fAw-] found.
Track | CTDB Status
  1   | (157/157) Accurately ripped
  2   | (156/157) Accurately ripped
  3   | (157/157) Accurately ripped
  4   | (156/157) Accurately ripped
  5   | (157/157) Accurately ripped
  6   | (157/157) Accurately ripped
  7   | (157/157) Accurately ripped
  8   | (157/157) Accurately ripped
  9   | (157/157) Accurately ripped
 10   | (157/157) Accurately ripped
 11   | (157/157) Accurately ripped
 12   | (157/157) Accurately ripped
 13   | (157/157) Accurately ripped
 14   | (156/157) Accurately ripped
 15   | (157/157) Accurately ripped
 16   | (157/157) Accurately ripped
 17   | (156/157) Accurately ripped
 18   | (156/157) Accurately ripped
 19   | (156/157) Accurately ripped
 20   | (154/157) Accurately ripped
[AccurateRip ID: 0038d125-0342502c-13124b14] found.
Track   [  CRC   |   V2   ] Status
 01     [5f95a091|aea9ca2e] (016+029/167) Accurately ripped
 02     [44b6cdd8|18faf7f6] (016+030/169) Accurately ripped
 03     [f54e1ef5|b0311cd4] (016+030/169) Accurately ripped
 04     [79531d25|920874d6] (016+028/166) Accurately ripped
 05     [f4c503c0|b0db2ee6] (016+029/167) Accurately ripped
 06     [aaea6469|894ffad5] (016+029/167) Accurately ripped
 07     [a5c619b3|1c9a1d17] (016+029/167) Accurately ripped
 08     [4438c69e|dd310e18] (016+029/167) Accurately ripped
 09     [9742ce5a|6a184f5b] (016+029/167) Accurately ripped
 10     [5cf4e7db|30f9cbde] (016+029/167) Accurately ripped
 11     [a22a0417|10771f7b] (016+028/165) Accurately ripped
 12     [ac474424|99ffd622] (016+029/169) Accurately ripped
 13     [a5023171|6a97c853] (016+029/166) Accurately ripped
 14     [43a67a31|c1ae6e93] (016+029/166) Accurately ripped
 15     [c526a7fd|aab58cb2] (016+029/168) Accurately ripped
 16     [7b0d85da|90a70a66] (016+029/163) Accurately ripped
 17     [8ff05448|20322e7f] (016+029/164) Accurately ripped
 18     [0df4ba52|05ef3269] (016+027/165) Accurately ripped
 19     [75c7786d|d7737f1d] (016+028/168) Accurately ripped
 20     [51c16a55|1d59f0b7] (016+028/161) Accurately ripped
Offsetted by -682:
 01     [0f7df521] (002/167) Accurately ripped
 02     [60c0f0e4] (002/169) Accurately ripped
 03     [3d39f54d] (002/169) Accurately ripped
 04     [be02a3db] (002/166) Accurately ripped
 05     [c7621464] (002/167) Accurately ripped
 06     [37542b07] (002/167) Accurately ripped
 07     [3aa0ce73] (003/167) Accurately ripped
 08     [ff59eec0] (002/167) Accurately ripped
 09     [5baa1ffe] (002/167) Accurately ripped
 10     [84cc5377] (003/167) Accurately ripped
 11     [1f599b23] (002/165) Accurately ripped
 12     [440529f6] (002/169) Accurately ripped
 13     [52d0fadd] (002/166) Accurately ripped
 14     [b65c21cb] (002/166) Accurately ripped
 15     [ec578667] (002/168) Accurately ripped
 16     [e77bf164] (002/163) Accurately ripped
 17     [9c2c9558] (002/164) Accurately ripped
 18     [7e1403be] (002/165) Accurately ripped
 19     [c31ad72d] (002/168) Accurately ripped
 20     [743f8c67] (002/161) Accurately ripped
Offsetted by -12:
 01     [87772e71] (042/167) Accurately ripped
 02     [04a4f700] (043/169) Accurately ripped
 03     [6f704cc5] (043/169) Accurately ripped
 04     [ba587459] (043/166) Accurately ripped
 05     [408bb838] (043/167) Accurately ripped
 06     [99ddfd4d] (042/167) Accurately ripped
 07     [538f6433] (042/167) Accurately ripped
 08     [a25a643a] (042/167) Accurately ripped
 09     [e088f0d2] (042/167) Accurately ripped
 10     [ea0b76e3] (042/167) Accurately ripped
 11     [84d6053f] (042/165) Accurately ripped
 12     [0c0a0b60] (043/169) Accurately ripped
 13     [aa51a7d9] (042/166) Accurately ripped
 14     [8e7d615d] (042/166) Accurately ripped
 15     [0de93489] (043/168) Accurately ripped
 16     [d1cb2626] (041/163) Accurately ripped
 17     [8f674128] (041/164) Accurately ripped
 18     [c59b30ba] (042/165) Accurately ripped
 19     [fb44ceed] (043/168) Accurately ripped
 20     [dbdb8f7d] (042/161) Accurately ripped
Offsetted by 13:
 01     [9f0bf189] (002/167) Accurately ripped
 02     [34ca2142] (002/169) Accurately ripped
 03     [8653c2a9] (002/169) Accurately ripped
 04     [1d8d5402] (002/166) Accurately ripped
 05     [a2adc03e] (002/167) Accurately ripped
 06     [680d2972] (002/167) Accurately ripped
 07     [e9815e53] (002/167) Accurately ripped
 08     [48e9b135] (002/167) Accurately ripped
 09     [07e17e58] (002/167) Accurately ripped
 10     [2ec7223d] (002/167) Accurately ripped
 11     [c1efad81] (002/165) Accurately ripped
 12     [ef3441a3] (002/169) Accurately ripped
 13     [df41712b] (002/166) Accurately ripped
 14     [dd3daa6c] (002/166) Accurately ripped
 15     [f653e510] (002/168) Accurately ripped
 16     [326ac2dd] (002/163) Accurately ripped
 17     [a5da2900] (002/164) Accurately ripped
 18     [1c55ba0c] (002/165) Accurately ripped
 19     [ba7fb00d] (002/168) Accurately ripped
 20     [ac1dc24c] (002/161) Accurately ripped
Offsetted by 1047:
 01     [07f605f9] (002/167) Accurately ripped
 02     [1acb46f6] (002/169) Accurately ripped
 03     [952801d1] (002/169) Accurately ripped
 04     [104124ac] (002/166) Accurately ripped
 05     [214c01da] (002/167) Accurately ripped
 06     [7a6488b4] (002/167) Accurately ripped
 07     [6aeb7593] (002/167) Accurately ripped
 08     [6f43cf33] (002/167) Accurately ripped
 09     [de1b8ef4] (002/167) Accurately ripped
 10     [8704a861] (002/167) Accurately ripped
 11     [a10a9f35] (002/165) Accurately ripped
 12     [0924dcf1] (002/169) Accurately ripped
 13     [95ad167f] (002/166) Accurately ripped
 14     [81e83072] (002/166) Accurately ripped
 15     [78d84146] (002/168) Accurately ripped
 16     [2aeca3f3] (002/163) Accurately ripped
 17     [fea818f0] (002/164) Accurately ripped
 18     [f678df60] (002/165) Accurately ripped
 19     [76cfbd4d] (002/168) Accurately ripped
 20     [5b06758c] (002/161) Accurately ripped
Offsetted by 1059:
 01     [e0147819] (003/167) Accurately ripped
 02     [5add1dce] (003/169) Accurately ripped
 03     [1b05d401] (004/169) Accurately ripped
 04     [cf3bcd78] (003/166) Accurately ripped
 05     [d5854d62] (003/167) Accurately ripped
 06     [8b70efd0] (003/167) Accurately ripped
 07     [bd222b13] (003/167) Accurately ripped
 08     [11223197] (004/167) Accurately ripped
 09     [94d56c7c] (003/167) Accurately ripped
 10     [f9ee1959] (003/167) Accurately ripped
 11     [be5e9e0d] (003/165) Accurately ripped
 12     [a96215b5] (004/169) Accurately ripped
 13     [905da017] (003/166) Accurately ripped
 14     [37114946] (003/166) Accurately ripped
 15     [3015b4ba] (003/168) Accurately ripped
 16     [d42f03a7] (003/163) Accurately ripped
 17     [ff312c10] (003/164) Accurately ripped
 18     [3ed268f8] (003/165) Accurately ripped
 19     [f15266cd] (003/168) Accurately ripped
 20     [b42eb2d4] (003/161) Accurately ripped
Offsetted by -80:
 01     [141ffd11] (000/167) No match (V2 was not tested)
 02     [443fe038] (000/169) No match (V2 was not tested)
 03     [78dca5b5] (000/169) No match (V2 was not tested)
 04     [d576b7d5] (000/166) No match (V2 was not tested)
 05     [edf1b6e0] (000/167) No match (V2 was not tested)
 06     [e3ed0a59] (000/167) No match (V2 was not tested)
 07     [2c595fb3] (000/167) No match (V2 was not tested)
 08     [626e36ae] (000/167) No match (V2 was not tested)
 09     [7fc1097a] (000/167) No match (V2 was not tested)
 10     [b435f6bb] (000/167) No match (V2 was not tested)
 11     [dea4b677] (000/165) No match (V2 was not tested)
 12     [d559c9b4] (000/169) No match (V2 was not tested)
 13     [c86946d1] (000/166) No match (V2 was not tested)
 14     [e13f2a01] (000/166) No match (V2 was not tested)
 15     [aa37a64d] (000/168) No match (V2 was not tested)
 16     [12a85d2a] (000/163) No match (V2 was not tested)
 17     [e1b3d4c8] (000/164) No match (V2 was not tested)
 18     [2b9fcfb2] (000/165) No match (V2 was not tested)
 19     [450b0e6d] (000/168) No match (V2 was not tested)
 20     [1e5e80a1] (000/161) No match (V2 was not tested)
Offsetted by -6:
 01     [f3866781] (000/167) No match
 02     [24ade26c] (000/169) No match
 03     [b25f35dd] (000/169) No match
 04     [19d5c8bf] (000/166) No match
 05     [1aa85dfc] (000/167) No match
 06     [a26430db] (000/167) No match
 07     [fcaabef3] (000/167) No match
 08     [f349956c] (000/167) No match
 09     [3be5df96] (000/167) No match
 10     [23802f5f] (000/167) No match
 11     [938004ab] (000/165) No match
 12     [dc28a7c2] (000/169) No match
 13     [27a9eca5] (000/166) No match
 14     [e911edc7] (000/166) No match
 15     [e987ee43] (000/168) No match
 16     [266c5600] (000/163) No match
 17     [0fabcab8] (000/164) No match (V2 was not tested)
 18     [69c7f586] (000/165) No match
 19     [b88623ad] (000/168) No match
 20     [971044c3] (000/161) No match
Offsetted by 6:
 01     [cba4d9a1] (000/167) No match
 02     [64bfb944] (000/169) No match
 03     [383d080d] (000/169) No match
 04     [d8d0718b] (000/166) No match
 05     [cee1a984] (000/167) No match
 06     [b37097f7] (000/167) No match
 07     [4ee17473] (000/167) No match
 08     [9527f7d0] (000/167) No match
 09     [f29fbd1e] (000/167) No match
 10     [9669a057] (000/167) No match
 11     [b0d40383] (000/165) No match
 12     [7c65e086] (000/169) No match
 13     [225a763d] (000/166) No match
 14     [9e3b069b] (000/166) No match
 15     [a0c561b7] (000/168) No match
 16     [cfaeb5b4] (000/163) No match
 17     [1034ddd8] (000/164) No match
 18     [b2217f1e] (000/165) No match (V2 was not tested)
 19     [3308cd2d] (000/168) No match (V2 was not tested)
 20     [0e80404e] (000/161) No match (V2 was not tested)
Offsetted by 584:
 01     [2009fd51] (000/167) No match (V2 was not tested)
 02     [c81afae8] (000/169) No match (V2 was not tested)
 03     [68241415] (000/169) No match (V2 was not tested)
 04     [724f33ed] (000/166) No match (V2 was not tested)
 05     [8cfeb4f0] (000/167) No match (V2 was not tested)
 06     [3df0a911] (000/167) No match (V2 was not tested)
 07     [9c2c9ab3] (000/167) No match (V2 was not tested)
 08     [b47f7af6] (000/167) No match (V2 was not tested)
 09     [a942eb8a] (000/167) No match (V2 was not tested)
 10     [e00061ab] (000/167) No match (V2 was not tested)
 11     [35772127] (000/165) No match (V2 was not tested)
 12     [cd400ebc] (000/169) No match (V2 was not tested)
 13     [a291af01] (000/166) No match (V2 was not tested)
 14     [5ecbdd29] (000/166) No match (V2 was not tested)
 15     [f02a9ab5] (000/168) No match (V2 was not tested)
 16     [a8566212] (000/163) No match (V2 was not tested)
 17     [54a9f708] (000/164) No match (V2 was not tested)
 18     [cefa37e2] (000/165) No match (V2 was not tested)
 19     [bff3b16d] (000/168) No match (V2 was not tested)
 20     [b58cd21a] (000/161) No match (V2 was not tested)

Track Peak [ CRC32  ] [W/O NULL] [  LOG   ]
 --  100.0 [CD820D6A] [9AC2CFA0]           
 01   99.8 [306603FB] [BD6D35C7]   CRC32   
 02   99.8 [1369EF57] [D7DCE6FB]   CRC32   
 03   99.2 [23E317DC] [84B095A2]   CRC32   
 04   99.8 [EB42E0AF] [4F03C100]   CRC32   
 05  100.0 [76029A96] [ACC11122]   CRC32   
 06   99.8 [72AA8CE7] [FF889C92]   CRC32   
 07   99.8 [51D72E15] [3926E15F]   CRC32   
 08   94.3 [32AEA0DD] [EDB74ECC]   CRC32   
 09   99.8 [BF4A10E2] [B56D8161]   CRC32   
 10   99.8 [3065E4E0] [6E3BC585]   CRC32   
 11   99.8 [F2730456] [9601C103]   CRC32   
 12  100.0 [43CDE3C6] [896DB5A1]   CRC32   
 13   99.8 [BF1CB748] [8B1B9751]   CRC32   
 14   99.8 [E2B9854B] [6DF098B1]   CRC32   
 15   99.8 [71A6BD9A] [5345EED6]   CRC32   
 16   99.8 [37A2CC24] [E697731A]   CRC32   
 17   99.8 [610130ED] [FDD81AF3]   CRC32   
 18  100.0 [42353554] [276CEBB1]   CRC32   
 19  100.0 [AC3C8E21] [15A00759]   CRC32   
 20  100.0 [2F0BE90B] [BF855426]   CRC32   



Create a new paste based on this one


Comments: