[ create a new paste ] login | about

Link: http://codepad.org/ygfO0fXJ    [ raw code | fork ]

Plain Text, pasted on Mar 23:
Exact Audio Copy V1.0 beta 3 from 29. August 2011

EAC extraction logfile from 7. March 2012, 16:25

Harry Manfredini / Friday the 13th (Disc 2)

Used drive  : PLEXTOR DVDR   PX-L890SA   Adapter: 1  ID: 1

Read mode               : Secure
Utilize accurate stream : Yes
Defeat audio cache      : Yes
Make use of C2 pointers : No

Read offset correction                      : 6
Overread into Lead-In and Lead-Out          : No
Fill up missing offset samples with silence : Yes
Delete leading and trailing silent blocks   : No
Null samples used in CRC calculations       : Yes
Used interface                              : Installed external ASPI interface
Gap handling                                : Appended to previous track

Used output format              : User Defined Encoder
Selected bitrate                : 1024 kBit/s
Quality                         : High
Add ID3 tag                     : No
Command line compressor         : C:\Program Files\Exact Audio Copy\Flac\flac.exe
Additional command line options : -V -8 -T "Genre=%genre%" -T "Artist=%artist%" -T "Title=%title%" -T "Album=%albumtitle%" -T "Date=%year%" -T "Tracknumber=%tracknr%" -T "Comment=%comment%" %source%


TOC of the extracted CD

     Track |   Start  |  Length  | Start sector | End sector 
    ---------------------------------------------------------
        1  |  0:00.00 |  5:33.29 |         0    |    25003   
        2  |  5:33.29 |  1:58.50 |     25004    |    33903   
        3  |  7:32.04 |  2:10.52 |     33904    |    43705   
        4  |  9:42.56 |  2:01.30 |     43706    |    52810   
        5  | 11:44.11 |  1:37.34 |     52811    |    60119   
        6  | 13:21.45 |  0:52.71 |     60120    |    64090   
        7  | 14:14.41 |  0:54.34 |     64091    |    68174   
        8  | 15:09.00 |  2:52.17 |     68175    |    81091   
        9  | 18:01.17 |  2:32.01 |     81092    |    92492   
       10  | 20:33.18 |  2:31.08 |     92493    |   103825   
       11  | 23:04.26 |  0:46.71 |    103826    |   107346   
       12  | 23:51.22 |  1:24.07 |    107347    |   113653   
       13  | 25:15.29 |  3:53.29 |    113654    |   131157   
       14  | 29:08.58 |  3:59.12 |    131158    |   149094   
       15  | 33:07.70 |  5:32.14 |    149095    |   174008   
       16  | 38:40.09 |  1:57.63 |    174009    |   182846   
       17  | 40:37.72 |  2:26.23 |    182847    |   193819   


Track  1

     Filename F:\torrent\Friday the 13th_Harry Manfredini_6_CD BOX SET\CD2\01 Flashback.wav

     Pre-gap length  0:00:02.00

     Peak level 99.8 %
     Extraction speed 5.5 X
     Track quality 100.0 %
     Test CRC FCEE1CE7
     Copy CRC FCEE1CE7
     Accurately ripped (confidence 2)  [6AF9FF93]  (AR v1)
     Copy OK

Track  2

     Filename F:\torrent\Friday the 13th_Harry Manfredini_6_CD BOX SET\CD2\02 Alice Hangs Up.wav

     Pre-gap length  0:00:02.00

     Peak level 91.3 %
     Extraction speed 5.1 X
     Track quality 100.0 %
     Test CRC 4262400C
     Copy CRC 4262400C
     Accurately ripped (confidence 2)  [8698D64A]  (AR v1)
     Copy OK

Track  3

     Filename F:\torrent\Friday the 13th_Harry Manfredini_6_CD BOX SET\CD2\03 Keep a Cool Head (AKA Main Title).wav

     Pre-gap length  0:00:02.00

     Peak level 99.4 %
     Extraction speed 5.5 X
     Track quality 100.0 %
     Test CRC 389956DC
     Copy CRC 389956DC
     Accurately ripped (confidence 2)  [F400F53B]  (AR v1)
     Copy OK

Track  4

     Filename F:\torrent\Friday the 13th_Harry Manfredini_6_CD BOX SET\CD2\04 Hand at Tree , Prowler.wav

     Pre-gap length  0:00:02.00

     Peak level 65.6 %
     Extraction speed 5.5 X
     Track quality 100.0 %
     Test CRC 278A9A58
     Copy CRC 278A9A58
     Accurately ripped (confidence 2)  [F6691AEC]  (AR v1)
     Copy OK

Track  5

     Filename F:\torrent\Friday the 13th_Harry Manfredini_6_CD BOX SET\CD2\05 Ralph Gets Cursed.wav

     Pre-gap length  0:00:02.00

     Peak level 84.5 %
     Extraction speed 5.4 X
     Track quality 100.0 %
     Test CRC 3307FEA9
     Copy CRC 3307FEA9
     Accurately ripped (confidence 2)  [46FDF08A]  (AR v1)
     Copy OK

Track  6

     Filename F:\torrent\Friday the 13th_Harry Manfredini_6_CD BOX SET\CD2\06 Terry Looks for Muffin.wav

     Pre-gap length  0:00:02.00

     Peak level 33.1 %
     Extraction speed 4.5 X
     Track quality 100.0 %
     Test CRC 364A82D4
     Copy CRC 364A82D4
     Accurately ripped (confidence 2)  [03C73F34]  (AR v1)
     Copy OK

Track  7

     Filename F:\torrent\Friday the 13th_Harry Manfredini_6_CD BOX SET\CD2\07 Jeff and Sandy Are Watched.wav

     Pre-gap length  0:00:02.00

     Peak level 83.6 %
     Extraction speed 3.3 X
     Track quality 99.8 %
     Test CRC E28AA328
     Copy CRC E28AA328
     Accurately ripped (confidence 2)  [32B7B9C5]  (AR v1)
     Copy OK

Track  8

     Filename F:\torrent\Friday the 13th_Harry Manfredini_6_CD BOX SET\CD2\08 The Chase , Sheriff Visits Villa Jason.wav

     Pre-gap length  0:00:02.00

     Peak level 93.7 %
     Extraction speed 6.6 X
     Track quality 100.0 %
     Test CRC 36927F16
     Copy CRC 36927F16
     Accurately ripped (confidence 2)  [DC7C3E55]  (AR v1)
     Copy OK

Track  9

     Filename F:\torrent\Friday the 13th_Harry Manfredini_6_CD BOX SET\CD2\09 Terry in Lake , Dolly In, Scott Out.wav

     Pre-gap length  0:00:02.00

     Peak level 94.5 %
     Extraction speed 6.7 X
     Track quality 100.0 %
     Test CRC 0964F145
     Copy CRC 0964F145
     Accurately ripped (confidence 2)  [D82B56D3]  (AR v1)
     Copy OK

Track 10

     Filename F:\torrent\Friday the 13th_Harry Manfredini_6_CD BOX SET\CD2\10 Vickie is Watched , Jason at Door.wav

     Pre-gap length  0:00:02.00

     Peak level 99.1 %
     Extraction speed 6.9 X
     Track quality 100.0 %
     Test CRC DB776999
     Copy CRC DB776999
     Accurately ripped (confidence 2)  [40568A48]  (AR v1)
     Copy OK

Track 11

     Filename F:\torrent\Friday the 13th_Harry Manfredini_6_CD BOX SET\CD2\11 Vickie Goes Up.wav

     Pre-gap length  0:00:02.00

     Peak level 61.8 %
     Extraction speed 4.8 X
     Track quality 100.0 %
     Test CRC C1A5F283
     Copy CRC C1A5F283
     Accurately ripped (confidence 2)  [C3AE7E03]  (AR v1)
     Copy OK

Track 12

     Filename F:\torrent\Friday the 13th_Harry Manfredini_6_CD BOX SET\CD2\12 Jason and Paul Meet.wav

     Pre-gap length  0:00:02.00

     Peak level 95.6 %
     Extraction speed 6.2 X
     Track quality 100.0 %
     Test CRC 57F26618
     Copy CRC 57F26618
     Accurately ripped (confidence 2)  [8C0CC5C4]  (AR v1)
     Copy OK

Track 13

     Filename F:\torrent\Friday the 13th_Harry Manfredini_6_CD BOX SET\CD2\13 Ragtop and Running Ragged.wav

     Pre-gap length  0:00:02.00

     Peak level 99.6 %
     Extraction speed 7.0 X
     Track quality 99.9 %
     Test CRC 22CC5D08
     Copy CRC 22CC5D08
     Accurately ripped (confidence 2)  [49BD8CCA]  (AR v1)
     Copy OK

Track 14

     Filename F:\torrent\Friday the 13th_Harry Manfredini_6_CD BOX SET\CD2\14 Ginny Under the Bed.wav

     Pre-gap length  0:00:02.00

     Peak level 97.9 %
     Extraction speed 8.3 X
     Track quality 100.0 %
     Test CRC 3947374C
     Copy CRC 3947374C
     Accurately ripped (confidence 2)  [C92B63A7]  (AR v1)
     Copy OK

Track 15

     Filename F:\torrent\Friday the 13th_Harry Manfredini_6_CD BOX SET\CD2\15 Ginny Visits Villa Jason.wav

     Pre-gap length  0:00:02.00

     Peak level 96.6 %
     Extraction speed 9.0 X
     Track quality 100.0 %
     Test CRC 1365E965
     Copy CRC 1365E965
     Accurately ripped (confidence 2)  [D62A1B83]  (AR v1)
     Copy OK

Track 16

     Filename F:\torrent\Friday the 13th_Harry Manfredini_6_CD BOX SET\CD2\16 Who's at the Door.wav

     Pre-gap length  0:00:02.00

     Peak level 99.3 %
     Extraction speed 6.3 X
     Track quality 99.9 %
     Test CRC 44122011
     Copy CRC 44122011
     Accurately ripped (confidence 2)  [9580DFE3]  (AR v1)
     Copy OK

Track 17

     Filename F:\torrent\Friday the 13th_Harry Manfredini_6_CD BOX SET\CD2\17 Return To Chez Jason , Titles.wav

     Pre-gap length  0:00:02.00

     Peak level 98.2 %
     Extraction speed 8.4 X
     Track quality 100.0 %
     Test CRC 27276767
     Copy CRC 27276767
     Accurately ripped (confidence 2)  [713B8A9A]  (AR v1)
     Copy OK


All tracks accurately ripped

No errors occurred

End of status report

==== Log checksum 62DC6600B54615EF3DB837A69A626E36C12FBF71BB437E4C1BA0C2B381A269E4 ====



Create a new paste based on this one


Comments: