[ create a new paste ] login | about

Link: http://codepad.org/ylLLhoxN    [ raw code | fork ]

Plain Text, pasted on Nov 14:
CD 1
->
Exact Audio Copy V1.3 from 2. September 2016

EAC extraction logfile from 2. November 2019, 10:40

Steve Miller Band / Welcome To The Vault CD1

Used drive  : PLEXTOR BD-R  PX-B950SA   Adapter: 1  ID: 1

Read mode               : Secure
Utilize accurate stream : Yes
Defeat audio cache      : Yes
Make use of C2 pointers : No

Read offset correction                      : 6
Overread into Lead-In and Lead-Out          : No
Fill up missing offset samples with silence : Yes
Delete leading and trailing silent blocks   : No
Null samples used in CRC calculations       : Yes
Used interface                              : Native Win32 interface for Win NT & 2000

Used output format : Internal WAV Routines
Sample format      : 44.100 Hz; 16 Bit; Stereo


TOC of the extracted CD

     Track |   Start  |  Length  | Start sector | End sector 
    ---------------------------------------------------------
        1  |  0:00.00 | 10:38.31 |         0    |    47880   
        2  | 10:38.31 |  4:06.36 |     47881    |    66366   
        3  | 14:44.67 |  8:56.64 |     66367    |   106630   
        4  | 23:41.56 |  4:50.41 |    106631    |   128421   
        5  | 28:32.22 |  4:52.72 |    128422    |   150393   
        6  | 33:25.19 |  4:03.60 |    150394    |   168678   
        7  | 37:29.04 |  4:04.63 |    168679    |   187041   
        8  | 41:33.67 |  2:53.21 |    187042    |   200037   
        9  | 44:27.13 |  2:48.06 |    200038    |   212643   
       10  | 47:15.19 |  8:30.12 |    212644    |   250905   
       11  | 55:45.31 |  7:19.18 |    250906    |   283848   
       12  | 63:04.49 |  1:54.56 |    283849    |   292454   
       13  | 64:59.30 |  2:42.65 |    292455    |   304669   
       14  | 67:42.20 |  4:25.20 |    304670    |   324564   
       15  | 72:07.40 |  2:05.40 |    324565    |   333979   


Range status and errors

Selected range

     Filename C:\Steve Miller Band\2019 Welcome To The Vault (4-Disc Book Set Capitol Records)\CD1\Steve Miller Band - Welcome To The Vault CD1.wav

     Peak level 100.0 %
     Extraction speed 5.8 X
     Range quality 99.9 %
     Test CRC 612EBA61
     Copy CRC 612EBA61
     Copy OK

No errors occurred

 
AccurateRip summary
 
Track  1  not present in database
Track  2  not present in database
Track  3  not present in database
Track  4  not present in database
Track  5  not present in database
Track  6  not present in database
Track  7  not present in database
Track  8  not present in database
Track  9  not present in database
Track 10  not present in database
Track 11  not present in database
Track 12  not present in database
Track 13  not present in database
Track 14  not present in database
Track 15  not present in database
 
None of the tracks are present in the AccurateRip database

End of status report

---- CUETools DB Plugin V2.1.6

[CTDB TOCID: eG.70.dl.bL0w2c2RkIhP6Su_pk-] found
Submit result: eG.70.dl.bL0w2c2RkIhP6Su_pk- has been confirmed
Track | CTDB Status
  1   | (7/7) Accurately ripped
  2   | (7/7) Accurately ripped
  3   | (7/7) Accurately ripped
  4   | (7/7) Accurately ripped
  5   | (7/7) Accurately ripped
  6   | (7/7) Accurately ripped
  7   | (7/7) Accurately ripped
  8   | (7/7) Accurately ripped
  9   | (7/7) Accurately ripped
 10   | (7/7) Accurately ripped
 11   | (7/7) Accurately ripped
 12   | (7/7) Accurately ripped
 13   | (7/7) Accurately ripped
 14   | (7/7) Accurately ripped
 15   | (7/7) Accurately ripped


==== Log checksum 5D2F41708602A036B92EF26F3FB5E0EDF42D03AFF524AE69A5DBBCBCA451DBC9 ====
->
=========================================================================================================================================================
->
CD 2
->
Exact Audio Copy V1.3 from 2. September 2016

EAC extraction logfile from 2. November 2019, 9:46

Steve Miller Band / Welcome To The Vault CD2

Used drive  : PLEXTOR BD-R  PX-B950SA   Adapter: 1  ID: 1

Read mode               : Secure
Utilize accurate stream : Yes
Defeat audio cache      : Yes
Make use of C2 pointers : No

Read offset correction                      : 6
Overread into Lead-In and Lead-Out          : No
Fill up missing offset samples with silence : Yes
Delete leading and trailing silent blocks   : No
Null samples used in CRC calculations       : Yes
Used interface                              : Native Win32 interface for Win NT & 2000

Used output format : Internal WAV Routines
Sample format      : 44.100 Hz; 16 Bit; Stereo


TOC of the extracted CD

     Track |   Start  |  Length  | Start sector | End sector 
    ---------------------------------------------------------
        1  |  0:00.00 |  2:28.61 |         0    |    11160   
        2  |  2:28.61 |  1:19.24 |     11161    |    17109   
        3  |  3:48.10 |  3:38.54 |     17110    |    33513   
        4  |  7:26.64 |  4:24.31 |     33514    |    53344   
        5  | 11:51.20 |  2:10.59 |     53345    |    63153   
        6  | 14:02.04 |  3:04.65 |     63154    |    77018   
        7  | 17:06.69 |  4:33.70 |     77019    |    97563   
        8  | 21:40.64 |  2:38.35 |     97564    |   109448   
        9  | 24:19.24 |  3:12.12 |    109449    |   123860   
       10  | 27:31.36 |  2:46.30 |    123861    |   136340   
       11  | 30:17.66 |  3:27.51 |    136341    |   151916   
       12  | 33:45.42 |  2:48.72 |    151917    |   164588   
       13  | 36:34.39 |  2:59.10 |    164589    |   178023   
       14  | 39:33.49 |  4:27.24 |    178024    |   198072   
       15  | 44:00.73 |  3:04.28 |    198073    |   211900   
       16  | 47:05.26 |  5:40.41 |    211901    |   237441   
       17  | 52:45.67 |  5:16.33 |    237442    |   261174   
       18  | 58:02.25 |  3:44.31 |    261175    |   278005   
       19  | 61:46.56 |  3:43.30 |    278006    |   294760   


Range status and errors

Selected range

     Filename C:\Steve Miller Band\2019 Welcome To The Vault (4-Disc Book Set Capitol Records)\CD2\Steve Miller Band - Welcome To The Vault CD2.wav

     Peak level 100.0 %
     Extraction speed 4.2 X
     Range quality 99.9 %
     Test CRC E2771207
     Copy CRC E2771207
     Copy OK

No errors occurred

 
AccurateRip summary
 
Track  1  not present in database
Track  2  not present in database
Track  3  not present in database
Track  4  not present in database
Track  5  not present in database
Track  6  not present in database
Track  7  not present in database
Track  8  not present in database
Track  9  not present in database
Track 10  not present in database
Track 11  not present in database
Track 12  not present in database
Track 13  not present in database
Track 14  not present in database
Track 15  not present in database
Track 16  not present in database
Track 17  not present in database
Track 18  not present in database
Track 19  not present in database
 
None of the tracks are present in the AccurateRip database

End of status report

---- CUETools DB Plugin V2.1.6

[CTDB TOCID: zfh__K1X6eIOR.viSHaoo8jiye8-] found
Submit result: zfh__K1X6eIOR.viSHaoo8jiye8- has been confirmed
Track | CTDB Status
  1   | (7/7) Accurately ripped
  2   | (7/7) Accurately ripped
  3   | (7/7) Accurately ripped
  4   | (7/7) Accurately ripped
  5   | (7/7) Accurately ripped
  6   | (7/7) Accurately ripped
  7   | (7/7) Accurately ripped
  8   | (7/7) Accurately ripped
  9   | (7/7) Accurately ripped
 10   | (7/7) Accurately ripped
 11   | (7/7) Accurately ripped
 12   | (7/7) Accurately ripped
 13   | (7/7) Accurately ripped
 14   | (7/7) Accurately ripped
 15   | (7/7) Accurately ripped
 16   | (7/7) Accurately ripped
 17   | (7/7) Accurately ripped
 18   | (7/7) Accurately ripped
 19   | (7/7) Accurately ripped


==== Log checksum 7FAC6BB8808964BD898F294BE58C59C1FF33C10455A3F28CC6C15E74860B57CD ====
->
=========================================================================================================================================================
->
CD3
->
Exact Audio Copy V1.3 from 2. September 2016

EAC extraction logfile from 2. November 2019, 8:43

Steve Miller Band / Welcome To The Vault CD3

Used drive  : PLEXTOR BD-R  PX-B950SA   Adapter: 1  ID: 1

Read mode               : Secure
Utilize accurate stream : Yes
Defeat audio cache      : Yes
Make use of C2 pointers : No

Read offset correction                      : 6
Overread into Lead-In and Lead-Out          : No
Fill up missing offset samples with silence : Yes
Delete leading and trailing silent blocks   : No
Null samples used in CRC calculations       : Yes
Used interface                              : Native Win32 interface for Win NT & 2000

Used output format : Internal WAV Routines
Sample format      : 44.100 Hz; 16 Bit; Stereo


TOC of the extracted CD

     Track |   Start  |  Length  | Start sector | End sector 
    ---------------------------------------------------------
        1  |  0:00.00 |  5:48.31 |         0    |    26130   
        2  |  5:48.31 |  6:27.33 |     26131    |    55188   
        3  | 12:15.64 |  1:13.67 |     55189    |    60730   
        4  | 13:29.56 |  4:44.33 |     60731    |    82063   
        5  | 18:14.14 |  6:08.53 |     82064    |   109716   
        6  | 24:22.67 |  4:42.16 |    109717    |   130882   
        7  | 29:05.08 |  4:22.00 |    130883    |   150532   
        8  | 33:27.08 |  2:49.35 |    150533    |   163242   
        9  | 36:16.43 |  2:17.17 |    163243    |   173534   
       10  | 38:33.60 |  3:26.52 |    173535    |   189036   
       11  | 42:00.37 |  3:12.33 |    189037    |   203469   
       12  | 45:12.70 |  2:56.50 |    203470    |   216719   
       13  | 48:09.45 |  5:08.26 |    216720    |   239845   
       14  | 53:17.71 |  3:24.17 |    239846    |   255162   
       15  | 56:42.13 |  4:29.72 |    255163    |   275409   
       16  | 61:12.10 |  4:41.09 |    275410    |   296493   
       17  | 65:53.19 |  3:04.09 |    296494    |   310302   
       18  | 68:57.28 |  6:35.29 |    310303    |   339956   


Range status and errors

Selected range

     Filename C:\Steve Miller Band\2019 Welcome To The Vault (4-Disc Book Set Capitol Records)\CD3\Steve Miller Band - Welcome To The Vault CD3.wav

     Peak level 100.0 %
     Extraction speed 8.4 X
     Range quality 99.9 %
     Test CRC 3C793153
     Copy CRC 3C793153
     Copy OK

No errors occurred

 
AccurateRip summary
 
Track  1  not present in database
Track  2  not present in database
Track  3  not present in database
Track  4  not present in database
Track  5  not present in database
Track  6  not present in database
Track  7  not present in database
Track  8  not present in database
Track  9  not present in database
Track 10  not present in database
Track 11  not present in database
Track 12  not present in database
Track 13  not present in database
Track 14  not present in database
Track 15  not present in database
Track 16  not present in database
Track 17  not present in database
Track 18  not present in database
 
None of the tracks are present in the AccurateRip database

End of status report

---- CUETools DB Plugin V2.1.6

[CTDB TOCID: PWpzU6VHPvf.8TZ2JX3_u_ebqmk-] found
Submit result: PWpzU6VHPvf.8TZ2JX3_u_ebqmk- has been confirmed
Track | CTDB Status
  1   | (6/6) Accurately ripped
  2   | (6/6) Accurately ripped
  3   | (6/6) Accurately ripped
  4   | (6/6) Accurately ripped
  5   | (6/6) Accurately ripped
  6   | (6/6) Accurately ripped
  7   | (6/6) Accurately ripped
  8   | (6/6) Accurately ripped
  9   | (6/6) Accurately ripped
 10   | (6/6) Accurately ripped
 11   | (6/6) Accurately ripped
 12   | (6/6) Accurately ripped
 13   | (6/6) Accurately ripped
 14   | (6/6) Accurately ripped
 15   | (6/6) Accurately ripped
 16   | (6/6) Accurately ripped
 17   | (6/6) Accurately ripped
 18   | (6/6) Accurately ripped


==== Log checksum 65FD912A0E5F606EDC571FB65C5D5B8A4D0EC4AC5876126FA0E4AC6123D116EC ====




Create a new paste based on this one


Comments: