[ create a new paste ] login | about

Link: http://codepad.org/yt3lqsH5    [ raw code | fork ]

Plain Text, pasted on May 8:
foobar2000 1.4.1 / Dynamic Range Meter 1.1.1
log date: 2019-05-07 23:12:52

--------------------------------------------------------------------------------
Analyzed: Miles Davis / Someday My Prince Will Come
--------------------------------------------------------------------------------

DR         Peak         RMS     Duration Track
--------------------------------------------------------------------------------
DR31      -0.01 dB   -37.40 dB      9:08 01-Someday My Prince Will Come
DR8      -15.78 dB   -38.67 dB      5:16 02-Old Folks
DR8      -12.75 dB   -33.06 dB      8:33 03-Pfrancing
DR7      -15.99 dB   -35.41 dB      4:31 04-Drad-Dog
DR9      -17.09 dB   -36.75 dB      9:36 05-Teo
DR8      -14.27 dB   -37.17 dB      4:56 06-I Thought About You
--------------------------------------------------------------------------------

Number of tracks:  6
Official DR value: DR12

Samplerate:        88200 Hz
Channels:          5
Bits per sample:   24
Bitrate:           3598 kbps
Codec:             FLAC
================================================================================




Create a new paste based on this one


Comments: