[ create a new paste ] login | about

Link: http://codepad.org/yt5JKpm6    [ raw code | fork ]

Plain Text, pasted on Nov 5:
Exact Audio Copy V1.3 from 2. September 2016

Отчёт EAC об извлечении, выполненном 25. октября 2020, 20:03

Joe Bonamassa / Royal Tea (Target Special Edition)

Дисковод: HL-DT-STDVD+-RW GH82N   Adapter: 1  ID: 0

Режим чтения                 : Достоверность
Использование точного потока : Да
Отключение кэша аудио        : Да
Использование указателей C2  : Нет

Коррекция смещения при чтении                     : 667
Способность читать области Lead-in и Lead-out     : Нет
Заполнение пропущенных сэмплов тишиной            : Да
Удаление блоков с тишиной в начале и конце        : Нет
При вычислениях CRC использовались нулевые сэмплы : Да
Интерфейс                                         : Встроенный Win32-интерфейс для Win NT/2000

Выходной формат          : Пользовательский кодировщик
Выбранный битрейт        : 1024 kBit/s
Качество                 : Высокий
Добавление ID3-тега      : Нет
Утилита сжатия           : C:\Program Files (x86)\Exact Audio Copy\FLAC\FLAC.EXE
Дополнительные параметры : -8 -V -T "ARTIST=%artist%" -T "ALBUM=%albumtitle%" -T "DATE=%year%" -T "GENRE=%genre%" -T "COMMENT=ripped by izia1956" %source%


TOC извлечённого CD

     Трек |   Старт  | Длительность | Начальный сектор | Конечный сектор 
    ---------------------------------------------------------------------
       1  |  0:00.00 |    7:34.72   |           0      |      34121      
       2  |  7:34.72 |    4:28.55   |       34122      |      54276      
       3  | 12:03.52 |    6:44.48   |       54277      |      84624      
       4  | 18:48.25 |    5:31.15   |       84625      |     109464      
       5  | 24:19.40 |    4:53.67   |      109465      |     131506      
       6  | 29:13.32 |    4:19.30   |      131507      |     150961      
       7  | 33:32.62 |    4:11.65   |      150962      |     169851      
       8  | 37:44.52 |    6:45.57   |      169852      |     200283      
       9  | 44:30.34 |    4:06.35   |      200284      |     218768      
      10  | 48:36.69 |    4:37.61   |      218769      |     239604      
      11  | 53:14.55 |    5:37.70   |      239605      |     264949      
      12  | 58:52.50 |    4:13.27   |      264950      |     283951      


Характеристики диапазона извлечения и сообщения об ошибках

Выбранный диапазон

     Имя файла E:\BitComet\Joe Bonamassa - Royal Tea (Target Special Edition) (2020)\Joe Bonamassa - Royal Tea (Target Special Edition).wav

     Пиковый уровень 100.0 %
     Скорость извлечения 2.1 X
     Качество диапазона 100.0 %
     CRC теста EAB16336
     CRC копии EAB16336
     Копирование... OK

Ошибок не произошло

 
AccurateRip: сводка
 
Трек  1  отсутствует в базе данных
Трек  2  отсутствует в базе данных
Трек  3  отсутствует в базе данных
Трек  4  отсутствует в базе данных
Трек  5  отсутствует в базе данных
Трек  6  отсутствует в базе данных
Трек  7  отсутствует в базе данных
Трек  8  отсутствует в базе данных
Трек  9  отсутствует в базе данных
Трек 10  отсутствует в базе данных
Трек 11  отсутствует в базе данных
Трек 12  отсутствует в базе данных
 
Ни одного трека нет в базе AccurateRip

Конец отчёта

==== Контрольная сумма отчёта 3424424794A82E2927EFA8D6BD6E6161705CD1EF519F46FC968B28A8CA6FD458 ====



Create a new paste based on this one


Comments: