[ create a new paste ] login | about

Link: http://codepad.org/yt74XfQ0    [ raw code | fork ]

Plain Text, pasted on Jun 21:
Exact Audio Copy V0.99 prebeta 4 from 23. January 2008

EAC extraction logfile from 20. July 2008, 11:35

Nat King Cole / The Very Thought Of You

Used drive  : PLEXTOR DVDR   PX-800A   Adapter: 1  ID: 1

Read mode               : Secure
Utilize accurate stream : Yes
Defeat audio cache      : Yes
Make use of C2 pointers : No

Read offset correction                      : 48
Overread into Lead-In and Lead-Out          : No
Fill up missing offset samples with silence : Yes
Delete leading and trailing silent blocks   : No
Null samples used in CRC calculations       : Yes
Used interface                              : Native Win32 interface for Win NT & 2000
Gap handling                                : Appended to previous track

Used output format              : User Defined Encoder
Selected bitrate                : 1024 kBit/s
Quality                         : High
Add ID3 tag                     : No
Command line compressor         : C:\Program Files\FLAC 1.2.1b\flac.exe
Additional command line options : -8 -V -T "ARTIST=%a" -T "TITLE=%t" -T "ALBUM=%g" -T "DATE=%y" -T "TRACKNUMBER=%n" -T "GENRE=%m" -T "COMMENT=EAC FLAC -8" %s


TOC of the extracted CD

     Track |   Start  |  Length  | Start sector | End sector 
    ---------------------------------------------------------
        1  |  0:00.00 |  3:52.60 |         0    |    17459   
        2  |  3:52.60 |  3:32.35 |     17460    |    33394   
        3  |  7:25.20 |  3:14.15 |     33395    |    47959   
        4  | 10:39.35 |  3:19.27 |     47960    |    62911   
        5  | 13:58.62 |  2:55.63 |     62912    |    76099   
        6  | 16:54.50 |  3:58.55 |     76100    |    94004   
        7  | 20:53.30 |  4:18.62 |     94005    |   113416   
        8  | 25:12.17 |  3:18.50 |    113417    |   128316   
        9  | 28:30.67 |  4:35.55 |    128317    |   148996   
       10  | 33:06.47 |  3:34.30 |    148997    |   165076   
       11  | 36:41.02 |  3:46.50 |    165077    |   182076   
       12  | 40:27.52 |  2:45.28 |    182077    |   194479   
       13  | 43:13.05 |  3:20.10 |    194480    |   209489   
       14  | 46:33.15 |  3:34.22 |    209490    |   225561   
       15  | 50:07.37 |  4:04.72 |    225562    |   243933   
       16  | 54:12.34 |  3:08.11 |    243934    |   258044   


Track  1

     Filename H:\L1\Nat King Cole - The Very Thought Of You (1958) [FLAC] {1997, DCC GZS-1119}\01 - The Very Thought Of You.wav

     Pre-gap length  0:00:02.00

     Peak level 69.3 %
     Track quality 100.0 %
     Test CRC 6B07BB08
     Copy CRC 6B07BB08
     Accurately ripped (confidence 2)  [1D278F01]
     Copy OK

Track  2

     Filename H:\L1\Nat King Cole - The Very Thought Of You (1958) [FLAC] {1997, DCC GZS-1119}\02 - But Beautiful.wav

     Pre-gap length  0:00:04.90

     Peak level 72.8 %
     Track quality 100.0 %
     Test CRC 0C333509
     Copy CRC 0C333509
     Accurately ripped (confidence 3)  [1A3D61C9]
     Copy OK

Track  3

     Filename H:\L1\Nat King Cole - The Very Thought Of You (1958) [FLAC] {1997, DCC GZS-1119}\03 - Impossible.wav

     Pre-gap length  0:00:04.84

     Peak level 55.5 %
     Track quality 100.0 %
     Test CRC DC7BF4E0
     Copy CRC DC7BF4E0
     Accurately ripped (confidence 2)  [6A88CCF0]
     Copy OK

Track  4

     Filename H:\L1\Nat King Cole - The Very Thought Of You (1958) [FLAC] {1997, DCC GZS-1119}\04 - I Wish I Knew The Way To Your Heart.wav

     Pre-gap length  0:00:06.80

     Peak level 70.8 %
     Track quality 100.0 %
     Test CRC 45AC2059
     Copy CRC 45AC2059
     Accurately ripped (confidence 3)  [0B33C947]
     Copy OK

Track  5

     Filename H:\L1\Nat King Cole - The Very Thought Of You (1958) [FLAC] {1997, DCC GZS-1119}\05 - I Found A Million Dollar Baby (In A Five And Ten Cent Store).wav

     Pre-gap length  0:00:06.22

     Peak level 80.5 %
     Track quality 100.0 %
     Test CRC F69672ED
     Copy CRC F69672ED
     Accurately ripped (confidence 3)  [49BBB8BC]
     Copy OK

Track  6

     Filename H:\L1\Nat King Cole - The Very Thought Of You (1958) [FLAC] {1997, DCC GZS-1119}\06 - Magnificent Obsession.wav

     Pre-gap length  0:00:06.80

     Peak level 49.3 %
     Track quality 99.9 %
     Test CRC B9734C24
     Copy CRC B9734C24
     Accurately ripped (confidence 3)  [93E96F00]
     Copy OK

Track  7

     Filename H:\L1\Nat King Cole - The Very Thought Of You (1958) [FLAC] {1997, DCC GZS-1119}\07 - My Heart Tells Me (Should I Believe My Heart).wav

     Pre-gap length  0:00:06.50

     Peak level 81.0 %
     Track quality 100.0 %
     Test CRC B2EDE422
     Copy CRC B2EDE422
     Accurately ripped (confidence 2)  [08CC06DA]
     Copy OK

Track  8

     Filename H:\L1\Nat King Cole - The Very Thought Of You (1958) [FLAC] {1997, DCC GZS-1119}\08 - Paradise.wav

     Pre-gap length  0:00:06.20

     Peak level 57.2 %
     Track quality 100.0 %
     Test CRC 28E903AB
     Copy CRC 28E903AB
     Accurately ripped (confidence 2)  [EAA5C793]
     Copy OK

Track  9

     Filename H:\L1\Nat King Cole - The Very Thought Of You (1958) [FLAC] {1997, DCC GZS-1119}\09 - This Is All I Ask.wav

     Pre-gap length  0:00:06.56

     Peak level 77.2 %
     Track quality 100.0 %
     Test CRC 5635E3F1
     Copy CRC 5635E3F1
     Accurately ripped (confidence 2)  [5DEDD847]
     Copy OK

Track 10

     Filename H:\L1\Nat King Cole - The Very Thought Of You (1958) [FLAC] {1997, DCC GZS-1119}\10 - Cherie, I Love You.wav

     Pre-gap length  0:00:06.26

     Peak level 68.6 %
     Track quality 100.0 %
     Test CRC 7A774151
     Copy CRC 7A774151
     Accurately ripped (confidence 3)  [1EB7A67D]
     Copy OK

Track 11

     Filename H:\L1\Nat King Cole - The Very Thought Of You (1958) [FLAC] {1997, DCC GZS-1119}\11 - Making Believe You're Here.wav

     Pre-gap length  0:00:05.46

     Peak level 64.6 %
     Track quality 100.0 %
     Test CRC BC36483A
     Copy CRC BC36483A
     Accurately ripped (confidence 3)  [75A256C7]
     Copy OK

Track 12

     Filename H:\L1\Nat King Cole - The Very Thought Of You (1958) [FLAC] {1997, DCC GZS-1119}\12 - Cherchez La Femme.wav

     Pre-gap length  0:00:07.89

     Peak level 46.8 %
     Track quality 99.9 %
     Test CRC EFA0050E
     Copy CRC EFA0050E
     Accurately ripped (confidence 3)  [83D69BF5]
     Copy OK

Track 13

     Filename H:\L1\Nat King Cole - The Very Thought Of You (1958) [FLAC] {1997, DCC GZS-1119}\13 - For All We Know.wav

     Pre-gap length  0:00:05.50

     Peak level 82.2 %
     Track quality 100.0 %
     Test CRC 93C4497A
     Copy CRC 93C4497A
     Accurately ripped (confidence 2)  [170244C8]
     Copy OK

Track 14

     Filename H:\L1\Nat King Cole - The Very Thought Of You (1958) [FLAC] {1997, DCC GZS-1119}\14 - The More I See You.wav

     Pre-gap length  0:00:05.24

     Peak level 65.4 %
     Track quality 100.0 %
     Test CRC F514A637
     Copy CRC F514A637
     Accurately ripped (confidence 2)  [C1018159]
     Copy OK

Track 15

     Filename H:\L1\Nat King Cole - The Very Thought Of You (1958) [FLAC] {1997, DCC GZS-1119}\15 - Don't Blame Me.wav

     Pre-gap length  0:00:06.76

     Peak level 78.1 %
     Track quality 100.0 %
     Test CRC 94B85744
     Copy CRC 94B85744
     Accurately ripped (confidence 2)  [F5F292B0]
     Copy OK

Track 16

     Filename H:\L1\Nat King Cole - The Very Thought Of You (1958) [FLAC] {1997, DCC GZS-1119}\16 - There Is No Greater Love.wav

     Pre-gap length  0:00:08.12

     Peak level 64.5 %
     Track quality 100.0 %
     Test CRC 654CFB25
     Copy CRC 654CFB25
     Accurately ripped (confidence 2)  [554F25B1]
     Copy OK


All tracks accurately ripped

No errors occurred

End of status report



Create a new paste based on this one


Comments: