[ create a new paste ] login | about

Link: http://codepad.org/z0c0QaF8    [ raw code | fork ]

Plain Text, pasted on Apr 19:
foobar2000 1.3.17 / Dynamic Range Meter 1.1.1
log date: 2018-04-18 13:16:20

--------------------------------------------------------------------------------
Analyzed: Rickie Lee Jones / Traffic From Paradise
--------------------------------------------------------------------------------

DR         Peak         RMS     Duration Track
--------------------------------------------------------------------------------
DR12      -5.79 dB   -22.60 dB      6:32 01-Pink Flamingos
DR15     -10.09 dB   -29.04 dB      2:27 02-Alter Boy
DR12      -7.44 dB   -22.10 dB      4:32 03-Stewart's Coat
DR13      -6.83 dB   -23.94 dB      4:11 04-Beat Angels
DR14      -6.18 dB   -22.49 dB      5:49 05-Tigers
DR15      -5.54 dB   -23.33 dB      4:40 06-Rebel Rebel
DR15      -4.37 dB   -21.62 dB      4:27 07-Jolie Jolie
DR13      -5.73 dB   -22.35 dB      6:03 08-Running from Mercy
DR13      -8.34 dB   -26.57 dB      2:55 09-A Stranger's Car
DR13      -7.12 dB   -23.23 dB      3:16 10-The Albatross
--------------------------------------------------------------------------------

Number of tracks:  10
Official DR value: DR14

Samplerate:        2822400 Hz / PCM Samplerate: 176400 Hz
Channels:          2
Bits per sample:   1
Bitrate:           5645 kbps
Codec:             DSD64
================================================================================




Create a new paste based on this one


Comments: