[ create a new paste ] login | about

Link: http://codepad.org/z0o9fD2T    [ raw code | fork ]

Plain Text, pasted on Jul 24:
foobar2000 1.3.17 / Dynamic Range Meter 1.1.1
log date: 2018-07-24 11:35:37

--------------------------------------------------------------------------------
Analyzed: Sarah Vaughan / Sarah Vaughan
--------------------------------------------------------------------------------

DR         Peak         RMS     Duration Track
--------------------------------------------------------------------------------
DR12      -0.59 dB   -14.56 dB      4:01 01-Lullaby Of Birdland
DR12      -0.26 dB   -17.40 dB      6:20 02-April In Paris
DR11      -0.01 dB   -13.77 dB      4:11 03-He's My Guy
DR12      -0.87 dB   -16.16 dB      5:50 04-Jim
DR11      -0.48 dB   -13.35 dB      4:43 05-You're Not The Kind
DR10      -1.09 dB   -16.31 dB      4:51 06-Embraceable You
DR11      -0.98 dB   -16.42 dB      5:10 07-I'm Glad There Is You
DR9       -0.91 dB   -14.83 dB      5:45 08-September Song
DR10      -1.31 dB   -14.53 dB      4:55 09-It's Crazy
DR10      -1.69 dB   -15.17 dB      3:59 10-Lullaby Of Birdland (Alternate Take)
--------------------------------------------------------------------------------

Number of tracks:  10
Official DR value: DR11

Samplerate:        88200 Hz
Channels:          2
Bits per sample:   24
Bitrate:           2517 kbps
Codec:             FLAC
================================================================================




Create a new paste based on this one


Comments: