[ create a new paste ] login | about

Link: http://codepad.org/zENNITZ1    [ raw code | fork ]

Plain Text, pasted on Dec 19:
Exact Audio Copy V1.3 from 2. September 2016

EAC extraction logfile from 5. December 2018, 18:31

David Bowie / Re:Call 4 CD2

Used drive  : PLEXTOR BD-R  PX-B950SA   Adapter: 1  ID: 1

Read mode               : Secure
Utilize accurate stream : Yes
Defeat audio cache      : Yes
Make use of C2 pointers : No

Read offset correction                      : 6
Overread into Lead-In and Lead-Out          : No
Fill up missing offset samples with silence : Yes
Delete leading and trailing silent blocks   : No
Null samples used in CRC calculations       : Yes
Used interface                              : Native Win32 interface for Win NT & 2000

Used output format : Internal WAV Routines
Sample format      : 44.100 Hz; 16 Bit; Stereo


TOC of the extracted CD

     Track |   Start  |  Length  | Start sector | End sector 
    ---------------------------------------------------------
        1  |  0:00.00 |  3:35.00 |         0    |    16124   
        2  |  3:35.00 |  4:14.34 |     16125    |    35208   
        3  |  7:49.34 |  3:43.04 |     35209    |    51937   
        4  | 11:32.38 |  4:34.66 |     51938    |    72553   
        5  | 16:07.29 |  4:56.42 |     72554    |    94795   
        6  | 21:03.71 |  4:06.63 |     94796    |   113308   
        7  | 25:10.59 |  3:59.02 |    113309    |   131235   
        8  | 29:09.61 |  3:55.32 |    131236    |   148892   
        9  | 33:05.18 |  4:02.64 |    148893    |   167106   
       10  | 37:08.07 |  4:03.72 |    167107    |   185403   
       11  | 41:12.04 |  5:34.46 |    185404    |   210499   
       12  | 46:46.50 |  3:59.62 |    210500    |   228486   
       13  | 50:46.37 |  4:07.59 |    228487    |   247070   
       14  | 54:54.21 |  4:19.50 |    247071    |   266545   
       15  | 59:13.71 |  3:25.61 |    266546    |   281981   


Range status and errors

Selected range

     Filename C:\David Bowie\2018 Loving The Alien (11CD Box Set Parlophone Records)\2018 ReCall 4 2CD\CD2\David Bowie - ReCall 4 CD2.wav

     Peak level 96.6 %
     Extraction speed 7.6 X
     Range quality 100.0 %
     Test CRC EBBEE7D5
     Copy CRC EBBEE7D5
     Copy OK

No errors occurred

 
AccurateRip summary
 
Track  1  accurately ripped (confidence 15)  [949C1C6C]  (AR v2)
Track  2  accurately ripped (confidence 15)  [4F1D5243]  (AR v2)
Track  3  accurately ripped (confidence 15)  [475BFED4]  (AR v2)
Track  4  accurately ripped (confidence 15)  [7767819E]  (AR v2)
Track  5  accurately ripped (confidence 15)  [DA4CF303]  (AR v2)
Track  6  accurately ripped (confidence 15)  [E1A0015D]  (AR v2)
Track  7  accurately ripped (confidence 15)  [1C54DF23]  (AR v2)
Track  8  accurately ripped (confidence 15)  [4876B173]  (AR v2)
Track  9  accurately ripped (confidence 15)  [09F4F1CE]  (AR v2)
Track 10  accurately ripped (confidence 15)  [1D28632D]  (AR v2)
Track 11  accurately ripped (confidence 15)  [C7EFD2E2]  (AR v2)
Track 12  accurately ripped (confidence 15)  [7D773A3D]  (AR v2)
Track 13  accurately ripped (confidence 15)  [05001BF5]  (AR v2)
Track 14  accurately ripped (confidence 15)  [3DE6DF72]  (AR v2)
Track 15  accurately ripped (confidence 15)  [7443D79C]  (AR v2)
 
All tracks accurately ripped

End of status report

---- CUETools DB Plugin V2.1.6

[CTDB TOCID: EGY0I_rd9qK6rI_rvN.7EB_4Crk-] found
Submit result: EGY0I_rd9qK6rI_rvN.7EB_4Crk- has been confirmed
Track | CTDB Status
  1   | (63/64) Accurately ripped
  2   | (63/64) Accurately ripped
  3   | (63/64) Accurately ripped
  4   | (63/64) Accurately ripped
  5   | (63/64) Accurately ripped
  6   | (63/64) Accurately ripped
  7   | (63/64) Accurately ripped
  8   | (63/64) Accurately ripped
  9   | (63/64) Accurately ripped
 10   | (63/64) Accurately ripped
 11   | (63/64) Accurately ripped
 12   | (63/64) Accurately ripped
 13   | (63/64) Accurately ripped
 14   | (63/64) Accurately ripped
 15   | (63/64) Accurately ripped


==== Log checksum E706B2006DE725CABEBBC85871910152095E231FB96ED4AD42660B366E115BCD ====



Create a new paste based on this one


Comments: