[ create a new paste ] login | about

Link: http://codepad.org/zFMVFmPF    [ raw code | fork ]

Plain Text, pasted on Oct 25:
Exact Audio Copy V1.0 beta 3 from 29. August 2011

EAC extraction logfile from 20. September 2018, 16:09

UriahHeep / Living The Dream

Used drive  : HL-DT-STDVDRAM GH24NSB0   Adapter: 0  ID: 0

Read mode               : Secure
Utilize accurate stream : Yes
Defeat audio cache      : Yes
Make use of C2 pointers : No

Read offset correction                      : 6
Overread into Lead-In and Lead-Out          : No
Fill up missing offset samples with silence : Yes
Delete leading and trailing silent blocks   : No
Null samples used in CRC calculations       : Yes
Used interface                              : Native Win32 interface for Win NT & 2000
Gap handling                                : Appended to previous track

Used output format              : User Defined Encoder
Selected bitrate                : 896 kBit/s
Quality                         : High
Add ID3 tag                     : No
Command line compressor         : C:\Users\Alex\Desktop\EAC_1.0_beta_3_Portable_Multilingual\App\EAC\FLAC\flac.exe
Additional command line options : -6 -V -T "ARTIST=%artist%" -T "TITLE=%title%" -T "ALBUM=%albumtitle%" -T "DATE=%year%" -T "TRACKNUMBER=%tracknr%" -T "GENRE=%genre%" -T "COMMENT=%comment%" %hascover%--picture="%coverfile%"%hascover% %source% -o %dest%


TOC of the extracted CD

     Track |   Start  |  Length  | Start sector | End sector 
    ---------------------------------------------------------
        1  |  0:00.00 |  4:31.36 |         0    |    20360   
        2  |  4:31.36 |  5:34.24 |     20361    |    45434   
        3  | 10:05.60 |  6:13.19 |     45435    |    73428   
        4  | 16:19.04 |  4:58.34 |     73429    |    95812   
        5  | 21:17.38 |  8:18.64 |     95813    |   133226   
        6  | 29:36.27 |  4:27.34 |    133227    |   153285   
        7  | 34:03.61 |  6:01.15 |    153286    |   180375   
        8  | 40:05.01 |  3:33.40 |    180376    |   196390   
        9  | 43:38.41 |  3:24.43 |    196391    |   211733   
       10  | 47:03.09 |  5:25.23 |    211734    |   236131   


Track  1

     Filename C:\Users\Alex\Desktop\Рипы\Новая папка (2)\01. Grazed By Heaven.wav

     Pre-gap length  0:00:02.00

     Peak level 98.8 %
     Extraction speed 1.1 X
     Track quality 100.0 %
     Test CRC 20901CC2
     Copy CRC 20901CC2
     Track not present in AccurateRip database
     Copy OK

Track  2

     Filename C:\Users\Alex\Desktop\Рипы\Новая папка (2)\02. Living The Dream.wav

     Peak level 97.7 %
     Extraction speed 1.2 X
     Track quality 99.9 %
     Test CRC 31B700A5
     Copy CRC 31B700A5
     Track not present in AccurateRip database
     Copy OK

Track  3

     Filename C:\Users\Alex\Desktop\Рипы\Новая папка (2)\03. Take Away My Soul.wav

     Peak level 98.8 %
     Extraction speed 1.5 X
     Track quality 100.0 %
     Test CRC CF8D1DBA
     Copy CRC CF8D1DBA
     Track not present in AccurateRip database
     Copy OK

Track  4

     Filename C:\Users\Alex\Desktop\Рипы\Новая папка (2)\04. Knocking At My Door.wav

     Peak level 98.8 %
     Extraction speed 1.4 X
     Track quality 99.9 %
     Test CRC 6F6E590C
     Copy CRC 6F6E590C
     Track not present in AccurateRip database
     Copy OK

Track  5

     Filename C:\Users\Alex\Desktop\Рипы\Новая папка (2)\05. Rocks In The Road.wav

     Peak level 98.8 %
     Extraction speed 1.8 X
     Track quality 100.0 %
     Test CRC 4E3B5C8D
     Copy CRC 4E3B5C8D
     Track not present in AccurateRip database
     Copy OK

Track  6

     Filename C:\Users\Alex\Desktop\Рипы\Новая папка (2)\06. Waters Flowin'.wav

     Peak level 98.8 %
     Extraction speed 1.8 X
     Track quality 100.0 %
     Test CRC F6EED5BE
     Copy CRC F6EED5BE
     Track not present in AccurateRip database
     Copy OK

Track  7

     Filename C:\Users\Alex\Desktop\Рипы\Новая папка (2)\07. It'S All Been Said.wav

     Peak level 98.8 %
     Extraction speed 1.8 X
     Track quality 99.9 %
     Test CRC C03B41EF
     Copy CRC C03B41EF
     Track not present in AccurateRip database
     Copy OK

Track  8

     Filename C:\Users\Alex\Desktop\Рипы\Новая папка (2)\08. Goodbye To Innocence.wav

     Peak level 98.8 %
     Extraction speed 1.9 X
     Track quality 100.0 %
     Test CRC D97DD0F9
     Copy CRC D97DD0F9
     Track not present in AccurateRip database
     Copy OK

Track  9

     Filename C:\Users\Alex\Desktop\Рипы\Новая папка (2)\09. Falling Under Your Spell.wav

     Peak level 98.8 %
     Extraction speed 2.0 X
     Track quality 100.0 %
     Test CRC 4DE99B97
     Copy CRC 4DE99B97
     Track not present in AccurateRip database
     Copy OK

Track 10

     Filename C:\Users\Alex\Desktop\Рипы\Новая папка (2)\10. Dreams Of Yesteryear.wav

     Peak level 98.8 %
     Extraction speed 2.2 X
     Track quality 100.0 %
     Test CRC AB287BE0
     Copy CRC AB287BE0
     Track not present in AccurateRip database
     Copy OK


None of the tracks are present in the AccurateRip database

No errors occurred

End of status report

==== Log checksum 66DEED12305855884B7AEAA375E2E26EA91284F43F4E6F415BB014279B895EFD ====



Create a new paste based on this one


Comments: