[ create a new paste ] login | about

Link: http://codepad.org/zHUGiDEz    [ raw code | fork ]

Plain Text, pasted on May 5:
foobar2000 1.3.17 / Dynamic Range Meter 1.1.1
log date: 2018-05-05 13:56:12

--------------------------------------------------------------------------------
Analyzed: Art Garfunkel / Angel Clair
--------------------------------------------------------------------------------

DR         Peak         RMS     Duration Track
--------------------------------------------------------------------------------
DR16      -0.79 dB   -17.97 dB      5:26 01-Traveling Boy  
DR7       -2.56 dB   -19.32 dB      4:02 02-Down in the Willow Garden  
DR8       -1.92 dB   -19.08 dB      3:35 03-I Shall Sing  
DR7       -2.74 dB   -20.92 dB      3:28 04-Old Man  
DR8       -2.52 dB   -19.17 dB      3:15 05-Feuilles Oh  Do Space Men Pass
DR8       -1.41 dB   -19.56 dB      3:51 06-All I Know  
DR8       -2.04 dB   -18.10 dB      3:27 07-Mary Was an Only Child  
DR7       -1.03 dB   -18.11 dB      3:25 08-Woyaya 
DR8       -3.01 dB   -20.69 dB      5:29 09-Barbara Allen  
DR7       -2.77 dB   -20.41 dB      3:39 10-Another Lullaby  
--------------------------------------------------------------------------------

Number of tracks:  10
Official DR value: DR9

Samplerate:        88200 Hz
Channels:          6
Bits per sample:   24
Bitrate:           5217 kbps
Codec:             FLAC
================================================================================




Create a new paste based on this one


Comments: