[ create a new paste ] login | about

Link: http://codepad.org/zKd28MzJ    [ raw code | fork ]

Plain Text, pasted on Jan 8:
Exact Audio Copy V1.1 from 23. June 2015

EAC extraction logfile from 24. December 2015, 10:06

Del Shannon / The Essential Collection - 1961 - 1991  (CD1)

Used drive  : ATAPI   iHAS122   C   Adapter: 1  ID: 0

Read mode               : Secure
Utilize accurate stream : Yes
Defeat audio cache      : Yes
Make use of C2 pointers : No

Read offset correction                      : 6
Overread into Lead-In and Lead-Out          : No
Fill up missing offset samples with silence : Yes
Delete leading and trailing silent blocks   : No
Null samples used in CRC calculations       : Yes
Used interface                              : Native Win32 interface for Win NT & 2000

Used output format : Internal WAV Routines
Sample format      : 44.100 Hz; 16 Bit; Stereo


TOC of the extracted CD

     Track |   Start  |  Length  | Start sector | End sector 
    ---------------------------------------------------------
        1  |  0:00.01 |  2:16.28 |         1    |    10228   
        2  |  2:16.29 |  2:01.38 |     10229    |    19341   
        3  |  4:17.67 |  2:30.29 |     19342    |    30620   
        4  |  6:48.21 |  2:01.06 |     30621    |    39701   
        5  |  8:49.27 |  2:10.57 |     39702    |    49508   
        6  | 11:00.09 |  2:01.64 |     49509    |    58647   
        7  | 13:01.73 |  2:20.42 |     58648    |    69189   
        8  | 15:22.40 |  2:10.00 |     69190    |    78939   
        9  | 17:32.40 |  2:00.40 |     78940    |    87979   
       10  | 19:33.05 |  2:20.53 |     87980    |    98532   
       11  | 21:53.58 |  2:06.00 |     98533    |   107982   
       12  | 23:59.58 |  2:47.70 |    107983    |   120577   
       13  | 26:47.53 |  2:29.55 |    120578    |   131807   
       14  | 29:17.33 |  2:35.73 |    131808    |   143505   
       15  | 31:53.31 |  1:55.55 |    143506    |   152185   
       16  | 33:49.11 |  2:19.01 |    152186    |   162611   
       17  | 36:08.12 |  2:00.69 |    162612    |   171680   
       18  | 38:09.06 |  2:26.43 |    171681    |   182673   
       19  | 40:35.49 |  2:27.13 |    182674    |   193711   
       20  | 43:02.62 |  2:13.24 |    193712    |   203710   
       21  | 45:16.11 |  2:33.22 |    203711    |   215207   
       22  | 47:49.33 |  2:12.22 |    215208    |   225129   
       23  | 50:01.55 |  2:27.15 |    225130    |   236169   
       24  | 52:28.70 |  2:08.56 |    236170    |   245825   
       25  | 54:37.51 |  2:05.47 |    245826    |   255247   
       26  | 56:43.23 |  2:46.14 |    255248    |   267711   


Range status and errors

Selected range

     Filename C:\Users\arthu\Desktop\Del Shannon - The Essential Collection - 1961 - 1991  (CD1).wav

     Peak level 100.0 %
     Extraction speed 8.6 X
     Range quality 100.0 %
     Test CRC B4557554
     Copy CRC B4557554
     Copy OK

No errors occurred

 
AccurateRip summary
 
Track  1  cannot be verified as accurate (confidence 12)  [FE2581B9], AccurateRip returned [3449E940]  (AR v2)
Track  2  cannot be verified as accurate (confidence 12)  [1ED973BF], AccurateRip returned [4C4866B4]  (AR v2)
Track  3  cannot be verified as accurate (confidence 12)  [7AC9B5EE], AccurateRip returned [FC349D50]  (AR v2)
Track  4  cannot be verified as accurate (confidence 12)  [4EFD88E7], AccurateRip returned [F65F16EB]  (AR v2)
Track  5  cannot be verified as accurate (confidence 12)  [BBA43BE1], AccurateRip returned [4654395D]  (AR v2)
Track  6  cannot be verified as accurate (confidence 12)  [5C15E248], AccurateRip returned [05311BD8]  (AR v2)
Track  7  cannot be verified as accurate (confidence 12)  [316E4F81], AccurateRip returned [CB37A071]  (AR v2)
Track  8  cannot be verified as accurate (confidence 12)  [A65D18BA], AccurateRip returned [B9955BAE]  (AR v2)
Track  9  cannot be verified as accurate (confidence 12)  [86DA7220], AccurateRip returned [F7BD7C85]  (AR v2)
Track 10  cannot be verified as accurate (confidence 12)  [850CF3A2], AccurateRip returned [1A29CBDF]  (AR v2)
Track 11  cannot be verified as accurate (confidence 12)  [FE840B04], AccurateRip returned [939D5200]  (AR v2)
Track 12  cannot be verified as accurate (confidence 12)  [50CEC184], AccurateRip returned [AF992C79]  (AR v2)
Track 13  cannot be verified as accurate (confidence 12)  [26651E60], AccurateRip returned [944212E6]  (AR v2)
Track 14  cannot be verified as accurate (confidence 11)  [231EFB0D], AccurateRip returned [ADA73C8A]  (AR v2)
Track 15  cannot be verified as accurate (confidence 12)  [1EFAD3FC], AccurateRip returned [37242E5C]  (AR v2)
Track 16  cannot be verified as accurate (confidence 12)  [ECDB5B45], AccurateRip returned [9E62DEDE]  (AR v2)
Track 17  cannot be verified as accurate (confidence 12)  [D263402F], AccurateRip returned [0D3A4F77]  (AR v2)
Track 18  cannot be verified as accurate (confidence 11)  [0E8BDC7A], AccurateRip returned [A52EC6CB]  (AR v2)
Track 19  cannot be verified as accurate (confidence 11)  [7A250AB4], AccurateRip returned [2AFFACC3]  (AR v2)
Track 20  cannot be verified as accurate (confidence 12)  [A21E8161], AccurateRip returned [7137B4E5]  (AR v2)
Track 21  cannot be verified as accurate (confidence 12)  [8C493714], AccurateRip returned [CE9F7F31]  (AR v2)
Track 22  cannot be verified as accurate (confidence 12)  [2C004AA7], AccurateRip returned [C6B9A3F2]  (AR v2)
Track 23  cannot be verified as accurate (confidence 12)  [3AC5164D], AccurateRip returned [D3ADF778]  (AR v2)
Track 24  cannot be verified as accurate (confidence 12)  [863E17A9], AccurateRip returned [08A327BF]  (AR v2)
Track 25  cannot be verified as accurate (confidence 12)  [F6441293], AccurateRip returned [2571C007]  (AR v2)
Track 26  cannot be verified as accurate (confidence 12)  [3C9E977E], AccurateRip returned [F57F124F]  (AR v2)
 
No tracks could be verified as accurate
You may have a different pressing from the one(s) in the database

End of status report

---- CUETools DB Plugin V2.1.6

[CTDB TOCID: 3yf_mkhrvW3gr_jg0FM5ssklv04-] found
Submit result: 3yf_mkhrvW3gr_jg0FM5ssklv04- has been confirmed
Track | CTDB Status
  1   | (3/3) Accurately ripped
  2   | (3/3) Accurately ripped
  3   | (3/3) Accurately ripped
  4   | (3/3) Accurately ripped
  5   | (3/3) Accurately ripped
  6   | (3/3) Accurately ripped
  7   | (3/3) Accurately ripped
  8   | (3/3) Accurately ripped
  9   | (3/3) Accurately ripped
 10   | (3/3) Accurately ripped
 11   | (3/3) Accurately ripped
 12   | (3/3) Accurately ripped
 13   | (3/3) Accurately ripped
 14   | (3/3) Accurately ripped
 15   | (3/3) Accurately ripped
 16   | (3/3) Accurately ripped
 17   | (3/3) Accurately ripped
 18   | (3/3) Accurately ripped
 19   | (3/3) Accurately ripped
 20   | (3/3) Accurately ripped
 21   | (3/3) Accurately ripped
 22   | (3/3) Accurately ripped
 23   | (3/3) Accurately ripped
 24   | (3/3) Accurately ripped
 25   | (3/3) Accurately ripped
 26   | (3/3) Accurately ripped




Create a new paste based on this one


Comments: