[ create a new paste ] login | about

Link: http://codepad.org/zOK1cab1    [ raw code | fork ]

Plain Text, pasted on Aug 13:
foobar2000 1.4.4 / Dynamic Range Meter 1.1.1
log date: 2019-08-13 10:46:53

--------------------------------------------------------------------------------
Analyzed: The Who / Live At Leeds (Deluxe Edition)
--------------------------------------------------------------------------------

DR         Peak         RMS     Duration Track
--------------------------------------------------------------------------------
DR10       0.00 dB   -12.15 dB      5:17 01-Heaven And Hell (Live At Leeds/1970)
DR12      -0.01 dB   -14.05 dB      2:49 02-I Can't Explain (Live At Leeds/1970)
DR12       0.00 dB   -13.41 dB      3:02 03-Fortune Teller (Live At Leeds/1970)
DR13       0.00 dB   -16.05 dB      3:01 04-Tattoo (Live At Leeds/1970)
DR12       0.00 dB   -14.54 dB      6:07 05-Young Man Blues (Live At Leeds/1970)
DR13       0.00 dB   -15.39 dB      3:10 06-Substitute (Live At Leeds/1970)
DR14       0.00 dB   -15.76 dB      2:14 07-Happy Jack (Live At Leeds/1970)
DR13      -0.01 dB   -14.77 dB      2:47 08-I'm A Boy (Live At Leeds/1970)
DR14       0.00 dB   -17.85 dB     14:11 09-A Quick One, While He's Away (Live At Leeds/1970)
DR13      -0.01 dB   -16.50 dB      6:46 10-Overture (Live At Leeds/1970)
DR12      -0.27 dB   -15.77 dB      0:35 11-It's A Boy (Live At Leeds/1970)
DR12      -0.08 dB   -14.02 dB      2:26 12-1921 (Live At Leeds/1970)
DR11       0.00 dB   -12.99 dB      4:16 13-Amazing Journey (Live At Leeds/1970)
DR11       0.00 dB   -12.74 dB      3:26 14-Sparks (Live At Leeds/1970)
DR13       0.00 dB   -15.01 dB      1:59 15-Eyesight To The Blind (The Hawker) (Live At Leeds/1970)
DR12       0.00 dB   -14.53 dB      3:19 16-Christmas (Live At Leeds/1970)
DR12       0.00 dB   -13.74 dB      3:33 17-The Acid Queen (Live At Leeds/1970)
DR12       0.00 dB   -14.44 dB      2:50 18-Pinball Wizard (Live At Leeds/1970)
DR11      -1.47 dB   -16.08 dB      0:22 19-Do You Think It's Alright? (Live At Leeds/1970)
DR13       0.00 dB   -13.83 dB      1:13 20-Fiddle About (Live At Leeds/1970)
DR12      -2.15 dB   -19.34 dB      0:56 21-Tommy Can You Hear Me? (Live At Leeds/1970)
DR12      -1.41 dB   -18.14 dB      0:23 22-There's A Doctor (Live At Leeds/1970)
DR12       0.00 dB   -12.89 dB      3:25 23-Go To The Mirror! (Live At Leeds/1970)
DR11       0.00 dB   -13.63 dB      1:19 24-Smash The Mirror (Live At Leeds/1970)
DR14      -0.01 dB   -16.75 dB      0:13 25-Miracle Cure (Live At Leeds/1970)
DR14      -0.01 dB   -15.88 dB      4:01 26-Sally Simpson (Live At Leeds/1970)
DR12      -0.01 dB   -14.05 dB      2:39 27-I'm Free (Live At Leeds/1970)
DR13      -0.03 dB   -16.37 dB      1:01 28-Tommy's Holiday Camp (Live At Leeds/1970)
DR12       0.00 dB   -14.06 dB      8:38 29-We're Not Gonna Take It (Live At Leeds/1970)
DR12       0.00 dB   -13.96 dB      3:35 30-Summertime Blues (Live At Leeds/1970)
DR12       0.00 dB   -14.95 dB      5:52 31-Shakin' All Over (Live At Leeds/1970)
DR11       0.00 dB   -13.97 dB     16:21 32-My Generation (Live At Leeds/1970)
DR12       0.00 dB   -15.20 dB      8:01 33-Magic Bus (Live At Leeds/1970)
--------------------------------------------------------------------------------

Number of tracks:  33
Official DR value: DR12

Samplerate:        96000 Hz
Channels:          2
Bits per sample:   24
Bitrate:           3002 kbps
Codec:             FLAC
================================================================================




Create a new paste based on this one


Comments: