[ create a new paste ] login | about

Link: http://codepad.org/zRyMaUEy    [ raw code | fork ]

Plain Text, pasted on Apr 24:
foobar2000 1.3.17 / Dynamic Range Meter 1.1.1
log date: 2018-04-24 08:10:26

--------------------------------------------------------------------------------
Analyzed: MARSHALL CRENSHAW / MARSHALL CRENSHAW
--------------------------------------------------------------------------------

DR         Peak         RMS     Duration Track
--------------------------------------------------------------------------------
DR14      -5.93 dB   -21.00 dB      2:37 01-There She Goes Again 
DR14      -6.19 dB   -21.91 dB      2:48 02-Someday, Someway
DR13      -5.92 dB   -20.99 dB      3:01 03-Girls
DR13      -6.05 dB   -20.93 dB      2:59 04-I'll Do Anything
DR13      -5.85 dB   -20.73 dB      3:07 05-Rockin' Around N.Y.C.
DR13      -7.31 dB   -21.31 dB      3:01 06-The Usual Thing
DR11      -5.87 dB   -18.73 dB      2:44 07-She Can't Dance
DR12      -5.65 dB   -20.06 dB      2:33 08-Cynical Girl
DR12      -5.84 dB   -19.74 dB      2:51 09-Mary Anne
DR12      -5.81 dB   -19.64 dB      2:35 10-Soldier Of Love
DR13      -5.86 dB   -20.66 dB      2:33 11-Not For Me
DR12      -5.80 dB   -19.81 dB      2:28 12-Brand New Lover
--------------------------------------------------------------------------------

Number of tracks:  12
Official DR value: DR13

Samplerate:        2822400 Hz / PCM Samplerate: 176400 Hz
Channels:          2
Bits per sample:   1
Bitrate:           5645 kbps
Codec:             DSD64
================================================================================




Create a new paste based on this one


Comments: