[ create a new paste ] login | about

Link: http://codepad.org/zScRCEGx    [ raw code | fork ]

Plain Text, pasted on Nov 22:
[CUETools log; Date: 11/22/2018 8:29:15 AM; Version: 2.1.5]
[CTDB TOCID: wh7PyJikNtAjthtleXBwcbnf4KE-] found.
Track | CTDB Status
  1   | (497/497) Accurately ripped
  2   | (497/497) Accurately ripped
  3   | (496/497) Accurately ripped
  4   | (497/497) Accurately ripped
  5   | (497/497) Accurately ripped
  6   | (497/497) Accurately ripped
  7   | (497/497) Accurately ripped
  8   | (497/497) Accurately ripped
  9   | (497/497) Accurately ripped
 10   | (496/497) Accurately ripped
 11   | (496/497) Accurately ripped
 12   | (496/497) Accurately ripped
 13   | (481/497) Accurately ripped, or (2/497) differs in 1225 samples @03:17:17-03:17:20, or (2/497) differs in 635 samples @03:17:18-03:17:19, or (2/497) differs in 569 samples @03:17:19-03:17:20
[AccurateRip ID: 0014f392-00d4c051-a90b170d] found.
Track   [  CRC   |   V2   ] Status
 01     [d1ffd720|cafe25d9] (00+10/10) Accurately ripped
 02     [23255e35|1e4e0948] (00+10/10) Accurately ripped
 03     [162d5a9a|0aa05530] (00+10/10) Accurately ripped
 04     [36606f7a|1f7e4b1f] (00+10/10) Accurately ripped
 05     [76a3d61f|16065b01] (00+10/10) Accurately ripped
 06     [d69c0428|f5bd2a3d] (00+10/10) Accurately ripped
 07     [adae0875|72d2beeb] (00+10/10) Accurately ripped
 08     [4ac2adde|6515ab08] (00+10/10) Accurately ripped
 09     [ebfa94ae|ffc16c46] (00+10/10) Accurately ripped
 10     [6de8b540|c7f60aad] (00+10/10) Accurately ripped
 11     [56c2b563|0524cf0a] (00+10/10) Accurately ripped
 12     [30a17eb4|67c8e420] (00+10/10) Accurately ripped
 13     [258b2bcf|1b2c390a] (00+10/10) Accurately ripped

Track Peak [ CRC32  ] [W/O NULL] [  LOG   ]
 --   96.4 [05DAB03F] [022C616E]   CRC32   
 01   95.0 [97C80A12] [AACFBB20]           
 02   95.1 [6703EA20] [F66FBE58]           
 03   94.2 [0FB582F1] [82E532D1]           
 04   96.4 [92861C5C] [2582356D]           
 05   96.2 [FD950932] [C46CBC9D]           
 06   95.7 [2B571B53] [98841E73]           
 07   95.2 [08A9B2FC] [8AC55ED7]           
 08   95.9 [C7F448C5] [C22E019B]           
 09   94.4 [F746A773] [D694D9D8]           
 10   95.9 [CABE2B09] [A34A17C7]           
 11   95.2 [B9259375] [E4C5D7EE]           
 12   94.4 [5D4C1BA1] [094F4AB1]           
 13   90.9 [ED1DC60C] [17D06F2D]           



Create a new paste based on this one


Comments: