[ create a new paste ] login | about

Link: http://codepad.org/zToXAbUC    [ raw code | fork ]

Plain Text, pasted on Sep 24:
foobar2000 1.3.17 / Dynamic Range Meter 1.1.1
log date: 2018-09-23 19:08:35

--------------------------------------------------------------------------------
Analyzed: The Band / The Band  - Music From Big Pink
--------------------------------------------------------------------------------

DR         Peak         RMS     Duration Track
--------------------------------------------------------------------------------
DR10      -0.10 dB   -12.09 dB      5:25 01-Tears Of Rage
DR11      -0.10 dB   -12.54 dB      3:21 02-To Kingdom Come
DR11      -0.10 dB   -12.26 dB      3:34 03-In A Station
DR10      -0.10 dB   -11.97 dB      2:57 04-Caledonia Mission
DR10      -0.10 dB   -11.96 dB      4:45 05-The Weight
DR11      -0.10 dB   -11.99 dB      3:06 06-We Can Talk
DR9       -0.10 dB   -10.63 dB      3:04 07-Long Black Veil
DR11      -0.10 dB   -12.73 dB      5:25 08-Chest Fever
DR11      -0.10 dB   -13.03 dB      4:09 09-Lonesome Suzie
DR10      -0.10 dB   -11.43 dB      3:25 10-This Wheel's On Fire
DR11      -0.10 dB   -13.15 dB      3:18 11-I Shall Be Released
DR11      -0.10 dB   -12.40 dB      4:12 12-Yazoo Street Scandal (Outtake)
DR11      -0.10 dB   -12.63 dB      5:33 13-Tears Of Rage (Alternate Take)
DR12      -0.10 dB   -12.92 dB      4:34 14-Long Distance Operator (Outtake)
DR11      -0.10 dB   -12.86 dB      3:01 15-Lonesome Suzie (Alternate Version)
DR11      -0.10 dB   -12.57 dB      2:29 16-Key To The Highway (Outtake)
DR11      -2.38 dB   -17.52 dB      3:06 17-I Shall Be Released (A Capella)
--------------------------------------------------------------------------------

Number of tracks:  17
Official DR value: DR11

Samplerate:        96000 Hz
Channels:          2
Bits per sample:   24
Bitrate:           2834 kbps
Codec:             FLAC
================================================================================




Create a new paste based on this one


Comments: