[ create a new paste ] login | about

Link: http://codepad.org/zVtTjYaP    [ raw code | fork ]

Plain Text, pasted on Jul 24:
foobar2000 1.3.17 / Dynamic Range Meter 1.1.1
log date: 2018-07-24 13:29:13

--------------------------------------------------------------------------------
Analyzed: Thelonious Monk / Supreme Jazz
--------------------------------------------------------------------------------

DR         Peak         RMS     Duration Track
--------------------------------------------------------------------------------
DR18      -0.16 dB   -20.99 dB      5:09 01-Let┤s Call This
DR19      -0.01 dB   -23.19 dB      5:19 02-Work
DR12      -0.16 dB   -14.94 dB      5:18 03-Nutty
DR14      -0.15 dB   -16.55 dB      5:14 04-The Way You Look Tonight
DR15      -0.16 dB   -18.12 dB      5:15 05-Round About Midnight
DR13      -0.16 dB   -16.26 dB      3:07 06-Evidence
DR14      -0.16 dB   -16.59 dB      3:26 07-Smoke Gets In Your Eyes
DR13      -0.16 dB   -16.33 dB      3:27 08-Well You Needn┤t 
DR14      -0.16 dB   -17.24 dB      5:03 09-Reflections
DR13      -0.16 dB   -15.16 dB      2:36 10-Wee See
DR14      -0.16 dB   -17.06 dB      2:34 11-Eronel 
DR14      -0.16 dB   -17.20 dB      2:35 12-Off Minor
DR15      -0.16 dB   -17.36 dB      3:03 13-Hackensack 
DR11      -0.16 dB   -11.86 dB      3:05 14-Evonce
--------------------------------------------------------------------------------

Number of tracks:  14
Official DR value: DR14

Samplerate:        88200 Hz
Channels:          2
Bits per sample:   24
Bitrate:           2516 kbps
Codec:             FLAC
================================================================================




Create a new paste based on this one


Comments: