[ create a new paste ] login | about

Link: http://codepad.org/zW81J2fZ    [ raw code | fork ]

Plain Text, pasted on Dec 2:
foobar2000 1.6 / Dynamic Range Meter 1.1.1
log date: 2020-12-02 04:16:04

--------------------------------------------------------------------------------
Analyzed: Floyd Cramer / Super Country Hits
--------------------------------------------------------------------------------

DR         Peak         RMS     Duration Track
--------------------------------------------------------------------------------
DR13      -0.81 dB   -18.71 dB      2:21 01-Battle of New Orleans  
DR12      -0.53 dB   -19.00 dB      2:27 02-Is Anybody Goin to San Antone? 
DR14      -2.03 dB   -19.68 dB      2:47 03-Let it be Me -Je tappartiens 
DR13      -0.46 dB   -19.89 dB      2:38 04-Detroit City  
DR13      -0.80 dB   -21.19 dB      2:19 05-Lonely Street  
DR13      -1.72 dB   -19.26 dB      2:12 06-Sugarfoot Rag  
DR13      -1.57 dB   -19.06 dB      2:16 07-Oklahoma Hills  
DR14      -3.12 dB   -20.34 dB      2:08 08-Kiss an Angel Good Mornin 
DR12      -2.17 dB   -22.53 dB      2:51 09-Crystal Chandelier  
DR13      -1.57 dB   -20.50 dB      2:29 10-Its a Sin  
DR13      -2.71 dB   -21.68 dB      3:26 11-Green, Green Grass of Home  
DR14      -1.96 dB   -23.53 dB      2:14 12-The Young and the Restless  
DR12      -3.35 dB   -21.44 dB      2:40 13-Top of the World  
DR12      -3.23 dB   -20.46 dB      2:53 14-The Most Beautiful Girl 
DR13      -1.85 dB   -20.62 dB      2:46 15-Mercy, Mercy, Mercy  
DR14      -2.10 dB   -21.31 dB      2:23 16-The Star Spangled Banner  
DR12      -3.22 dB   -20.25 dB      2:50 17-Behind Closed Doors  
DR14      -0.01 dB   -19.51 dB      2:25 18-Boogie, Boogie, Boogie  
DR13      -1.74 dB   -21.39 dB      2:26 19-Laidback  
DR12      -1.71 dB   -20.09 dB      2:22 20-Theme from a Dream  
DR14      -0.90 dB   -20.03 dB      2:31 21-Rockin On  
--------------------------------------------------------------------------------

Number of tracks:  21
Official DR value: DR13

Samplerate:        88200 Hz
Channels:          6
Bits per sample:   24
Bitrate:           6625 kbps
Codec:             FLAC
================================================================================




Create a new paste based on this one


Comments: