[ create a new paste ] login | about

Link: http://codepad.org/zXsE2kcH    [ raw code | fork ]

Plain Text, pasted on Sep 28:
foobar2000 1.4.6 / Dynamic Range Meter 1.1.1
log date: 2019-09-27 17:40:52

--------------------------------------------------------------------------------
Analyzed: Pearl jam / Twenty [2011 Monkrywrench Records 3x 180g Vinyl]
--------------------------------------------------------------------------------

DR         Peak         RMS     Duration Track
--------------------------------------------------------------------------------
DR8       -2.20 dB   -12.68 dB      4:46 01-Release [Italy 2006]
DR9       -2.10 dB   -12.54 dB      4:46 02-Alive [Seattle 1990]
DR9       -1.47 dB   -12.07 dB      7:02 02-Heaven
DR9       -3.28 dB   -13.61 dB      6:07 03-Garden [Switzerland 1992]
DR9       -4.04 dB   -14.36 dB      3:24 04-Why Go [Germany 1992]
DR11      -0.78 dB   -14.44 dB      5:38 05-Black [New York City 1992]
DR10      -1.27 dB   -12.91 dB      3:15 06-Blood [New Zealand 1995]
DR8       -2.48 dB   -12.48 dB      2:45 07-Last Exit [Taiwan 1995]
DR9       -0.88 dB   -12.71 dB      6:17 08-Not For You [Phillippines 1995]
DR11      -0.41 dB   -12.69 dB      3:45 09-Do The Evolution [Seattle 1998]
DR10      -2.73 dB   -15.01 dB      4:21 10-Thumbing My Way [Seattle 2002]
DR8       -1.49 dB   -12.29 dB      6:43 11-Crown Of Thorns [Las Vegas 2000]
DR8       -2.83 dB   -13.67 dB      2:15 12-Let Me Sleep [Italy 2006]
DR10      -1.87 dB   -14.16 dB      4:10 13-Walk With Me [Mountain View 2010]
DR9       -3.02 dB   -14.47 dB      3:43 14-Just Breathe [New York 2010]
DR12      -0.40 dB   -15.65 dB      4:12 16-Times Of Trouble [Demo 1990]
DR8       -2.72 dB   -14.88 dB      2:49 17-Acoustic #1 [Demo 1990]
DR9       -2.27 dB   -12.99 dB      1:27 18-It Ain't Like That [Demo 1990]
DR9       -2.35 dB   -13.51 dB      1:52 19-Need To Know [Demo 1990]
DR11      -3.27 dB   -17.08 dB      2:02 20-Be Like Wind [Score 2010]
DR11      -2.80 dB   -17.13 dB      2:41 21-Given To Fly [Instrumental 2010]
DR9       -1.68 dB   -14.03 dB      4:41 22-Nothing As It Seems [Demo 1999]
DR9       -2.48 dB   -13.80 dB      5:40 23-Nothing As It Seems [Seattle 2001]
DR9       -3.27 dB   -14.33 dB      5:02 24-Indifference [Italy 2006]
DR10      -1.70 dB   -14.78 dB      5:05 25-Of The Girl [Instrumental 2000]
DR9       -2.13 dB   -13.61 dB      4:26 26-Faithfull [Italy 2006]
DR10      -0.50 dB   -13.42 dB      4:49 27-Bu$hleager [Nassau 2003]
DR9       -1.29 dB   -13.03 dB      6:48 28-Better Man [New York 2010]
DR9       -0.47 dB   -11.62 dB      7:14 29-Rearviewmirror [Universal City 2009]
--------------------------------------------------------------------------------

Number of tracks:  29
Official DR value: DR9

Samplerate:        44100 Hz
Channels:          2
Bits per sample:   16
Bitrate:           872 kbps
Codec:             FLAC
================================================================================




Create a new paste based on this one


Comments: