[ create a new paste ] login | about

Link: http://codepad.org/zY8ITa82    [ raw code | fork ]

Plain Text, pasted on May 8:
foobar2000 1.4.1 / Dynamic Range Meter 1.1.1
log date: 2019-05-07 19:21:50

--------------------------------------------------------------------------------
Analyzed: MILES DAVIS / IN A SILENT WAY
--------------------------------------------------------------------------------

DR         Peak         RMS     Duration Track
--------------------------------------------------------------------------------
DR14      -5.58 dB   -25.25 dB     18:28 01-Shh/Peaceful
DR14      -2.34 dB   -26.23 dB     20:04 02-In A Silent Way/It's About That Time
--------------------------------------------------------------------------------

Number of tracks:  2
Official DR value: DR14

Samplerate:        2822400 Hz / PCM Samplerate: 176400 Hz
Channels:          6
Bits per sample:   1
Bitrate:           16934 kbps
Codec:             DST64
================================================================================

--------------------------------------------------------------------------------
Analyzed: MILES DAVIS / IN A SILENT WAY
--------------------------------------------------------------------------------

DR         Peak         RMS     Duration Track
--------------------------------------------------------------------------------
DR11      -5.49 dB   -18.62 dB     18:15 01-Shh/Peaceful
DR11      -5.56 dB   -20.11 dB     19:52 02-In A Silent Way/It's About That Time
--------------------------------------------------------------------------------

Number of tracks:  2
Official DR value: DR11

Samplerate:        2822400 Hz / PCM Samplerate: 176400 Hz
Channels:          2
Bits per sample:   1
Bitrate:           5645 kbps
Codec:             DSD64
================================================================================




Create a new paste based on this one


Comments: