[ create a new paste ] login | about

Link: http://codepad.org/zap6bOQL    [ raw code | fork ]

Plain Text, pasted on Mar 1:
Exact Audio Copy V1.1 from 23. June 2015

EAC extraction logfile from 7. August 2015, 0:40

Various Artists / Pure... electronic 80s (CD 2)

Used drive  : PIONEER BD-RW   BDR-206   Adapter: 1  ID: 0

Read mode               : Secure
Utilize accurate stream : Yes
Defeat audio cache      : Yes
Make use of C2 pointers : No

Read offset correction                      : 667
Overread into Lead-In and Lead-Out          : No
Fill up missing offset samples with silence : Yes
Delete leading and trailing silent blocks   : No
Null samples used in CRC calculations       : Yes
Used interface                              : Native Win32 interface for Win NT & 2000

Used output format              : User Defined Encoder
Selected bitrate                : 768 kBit/s
Quality                         : High
Add ID3 tag                     : No
Command line compressor         : C:\Program Files (x86)\Exact Audio Copy\Flac\flac.exe
Additional command line options : -8 -V -T "TITLE=%title%" -T "ARTIST=%artist%" -T "ALBUMARTIST=%albumartist%" -T "ALBUM=%albumtitle%" -T "DATE=%year%" -T "TRACKNUMBER=%tracknr%" -T "TRACKTOTAL=%numtracks%" -T "GENRE=%genre%" -T "COMMENT=%comment%" -T "PERFORMER=%albuminterpret%" -T "COMPOSER=%composer%" %source% -o %dest%


TOC of the extracted CD

     Track |   Start  |  Length  | Start sector | End sector 
    ---------------------------------------------------------
        1  |  0:00.00 |  3:25.04 |         0    |    15378   
        2  |  3:25.04 |  5:53.31 |     15379    |    41884   
        3  |  9:18.35 |  3:48.14 |     41885    |    58998   
        4  | 13:06.49 |  3:16.62 |     58999    |    73760   
        5  | 16:23.36 |  5:57.04 |     73761    |   100539   
        6  | 22:20.40 |  3:33.10 |    100540    |   116524   
        7  | 25:53.50 |  3:41.41 |    116525    |   133140   
        8  | 29:35.16 |  4:05.38 |    133141    |   151553   
        9  | 33:40.54 |  4:12.51 |    151554    |   170504   
       10  | 37:53.30 |  3:48.43 |    170505    |   187647   
       11  | 41:41.73 |  3:53.16 |    187648    |   205138   
       12  | 45:35.14 |  3:38.24 |    205139    |   221512   
       13  | 49:13.38 |  3:22.09 |    221513    |   236671   
       14  | 52:35.47 |  3:03.46 |    236672    |   250442   
       15  | 55:39.18 |  4:13.33 |    250443    |   269450   
       16  | 59:52.51 |  3:35.50 |    269451    |   285625   


Range status and errors

Selected range

     Filename D:\Сборники (Flac)\VA - Pure... electronic 80s (2014)4CD[Flac+.cue]\CD2\Various Artists - Pure... electronic 80s (CD 2).wav

     Peak level 99.7 %
     Extraction speed 7.7 X
     Range quality 100.0 %
     Test CRC AAA33D53
     Copy CRC AAA33D53
     Copy OK

No errors occurred

 
AccurateRip summary
 
Track  1  accurately ripped (confidence 4)  [23513FD5]  (AR v2)
Track  2  accurately ripped (confidence 4)  [11CF780D]  (AR v2)
Track  3  accurately ripped (confidence 4)  [8D101115]  (AR v2)
Track  4  accurately ripped (confidence 4)  [F4D148BE]  (AR v2)
Track  5  accurately ripped (confidence 4)  [0A83A36D]  (AR v2)
Track  6  accurately ripped (confidence 4)  [3D043BC7]  (AR v2)
Track  7  accurately ripped (confidence 4)  [1DC8F66C]  (AR v2)
Track  8  accurately ripped (confidence 4)  [A5A7ECA0]  (AR v2)
Track  9  accurately ripped (confidence 4)  [4A1B300F]  (AR v2)
Track 10  accurately ripped (confidence 4)  [7DF50D2C]  (AR v2)
Track 11  accurately ripped (confidence 4)  [AD87A8A2]  (AR v2)
Track 12  accurately ripped (confidence 4)  [98A7AD41]  (AR v2)
Track 13  accurately ripped (confidence 4)  [242C138A]  (AR v2)
Track 14  accurately ripped (confidence 4)  [AAB76A08]  (AR v2)
Track 15  accurately ripped (confidence 4)  [69AAA12A]  (AR v2)
Track 16  accurately ripped (confidence 4)  [C8C519C0]  (AR v2)
 
All tracks accurately ripped

End of status report

---- CUETools DB Plugin V2.1.6

[CTDB TOCID: nO9WFUw4QVTAX5uwIRs0pn4qJxY-] found
Submit result: nO9WFUw4QVTAX5uwIRs0pn4qJxY- has been confirmed
Track | CTDB Status
  1   | (7/7) Accurately ripped
  2   | (7/7) Accurately ripped
  3   | (7/7) Accurately ripped
  4   | (7/7) Accurately ripped
  5   | (7/7) Accurately ripped
  6   | (7/7) Accurately ripped
  7   | (7/7) Accurately ripped
  8   | (7/7) Accurately ripped
  9   | (7/7) Accurately ripped
 10   | (7/7) Accurately ripped
 11   | (7/7) Accurately ripped
 12   | (7/7) Accurately ripped
 13   | (7/7) Accurately ripped
 14   | (7/7) Accurately ripped
 15   | (7/7) Accurately ripped
 16   | (7/7) Accurately ripped


==== Log checksum 5374CD8A0497F028F1AD1598E55A5397E446F7A63743426792721FDAE724D870 ====



Create a new paste based on this one


Comments: