[ create a new paste ] login | about

Link: http://codepad.org/zbvt7AN2    [ raw code | fork ]

Plain Text, pasted on Mar 8:
Exact Audio Copy V1.3 from 2. September 2016

EAC extraction logfile from 6. March 2017, 17:44

Depeche Mode / Where's The Revolution (Remixes)

Used drive  : PLEXTOR DVDR   PX-891SA   Adapter: 1  ID: 0

Read mode               : Secure
Utilize accurate stream : Yes
Defeat audio cache      : Yes
Make use of C2 pointers : No

Read offset correction                      : 6
Overread into Lead-In and Lead-Out          : No
Fill up missing offset samples with silence : Yes
Delete leading and trailing silent blocks   : No
Null samples used in CRC calculations       : Yes
Used interface                              : Native Win32 interface for Win NT & 2000
Gap handling                                : Appended to previous track

Used output format              : User Defined Encoder
Selected bitrate                : 1024 kBit/s
Quality                         : High
Add ID3 tag                     : No
Command line compressor         : C:\Program Files (x86)\Exact Audio Copy\Flac\flac.exe
Additional command line options : -0 -V -T "ARTIST=%artist%" -T "TITLE=%title%" -T "ALBUM=%albumtitle%" -T "DATE=%year%" -T "TRACKNUMBER=%tracknr%" -T "TOTALTRACKS=%numtracks%" -T "GENRE=%genre%" -T "COMMENT=" %source%


TOC of the extracted CD

     Track |   Start  |  Length  | Start sector | End sector 
    ---------------------------------------------------------
        1  |  0:00.00 |  4:59.24 |         0    |    22448   
        2  |  4:59.24 |  8:36.22 |     22449    |    61170   
        3  | 13:35.46 |  4:55.28 |     61171    |    83323   
        4  | 18:30.74 |  6:23.09 |     83324    |   112057   
        5  | 24:54.08 |  4:17.15 |    112058    |   131347   


Track  1

     Filename E:\Depeche Mode - Where's The Revolution (Remixes 2017)[FLAC]\01 - Where's The Revolution (Album Version).wav

     Pre-gap length  0:00:02.00

     Peak level 94.3 %
     Extraction speed 1.9 X
     Track quality 100.0 %
     Test CRC 8698C3F4
     Copy CRC 8698C3F4
     Track not present in AccurateRip database
     Copy OK

Track  2

     Filename E:\Depeche Mode - Where's The Revolution (Remixes 2017)[FLAC]\02 - Where's The Revolution (Ewan Pearson Remix).wav

     Peak level 86.1 %
     Extraction speed 2.4 X
     Track quality 100.0 %
     Test CRC BE8EC1A8
     Copy CRC BE8EC1A8
     Track not present in AccurateRip database
     Copy OK

Track  3

     Filename E:\Depeche Mode - Where's The Revolution (Remixes 2017)[FLAC]\03 - Where's The Revolution (Algiers Remix).wav

     Peak level 86.4 %
     Extraction speed 2.6 X
     Track quality 100.0 %
     Test CRC F09DE8E5
     Copy CRC F09DE8E5
     Track not present in AccurateRip database
     Copy OK

Track  4

     Filename E:\Depeche Mode - Where's The Revolution (Remixes 2017)[FLAC]\04 - Where's The Revolution (Terence Fixmer Remix).wav

     Peak level 84.8 %
     Extraction speed 2.4 X
     Track quality 99.9 %
     Test CRC 3DD1EBA6
     Copy CRC 3DD1EBA6
     Track not present in AccurateRip database
     Copy OK

Track  5

     Filename E:\Depeche Mode - Where's The Revolution (Remixes 2017)[FLAC]\05 - Where's The Revolution (Autolux Remix).wav

     Peak level 99.7 %
     Extraction speed 3.0 X
     Track quality 100.0 %
     Test CRC 0D7F36BA
     Copy CRC 0D7F36BA
     Track not present in AccurateRip database
     Copy OK


None of the tracks are present in the AccurateRip database

No errors occurred

End of status report

==== Log checksum F88C4198A5B344C888C5E304F0D82FE182540C601E83CF948402058ACDEAECFF ====



Create a new paste based on this one


Comments: