[ create a new paste ] login | about

Link: http://codepad.org/zgLzQK02    [ raw code | fork ]

Plain Text, pasted on Jan 22:
foobar2000 1.5 / Dynamic Range Meter 1.1.1
log date: 2020-01-23 00:08:43

--------------------------------------------------------------------------------
Analyzed: Neil Young / Old Ways
--------------------------------------------------------------------------------

DR         Peak         RMS     Duration Track
--------------------------------------------------------------------------------
DR13      -0.76 dB   -16.29 dB      3:10 01-The Wayward Wind
DR14      -0.05 dB   -15.88 dB      2:48 02-Get Back To The Country
DR14      -0.67 dB   -17.03 dB      3:03 03-Are There Any More Real Cowboys?
DR13      -0.68 dB   -16.16 dB      3:54 04-Once An Angel
DR13      -1.15 dB   -17.18 dB      5:05 05-Misfits
DR13      -1.38 dB   -16.99 dB      2:55 06-California Sunset
DR14      -0.05 dB   -17.49 dB      3:06 07-Old Ways
DR13      -0.53 dB   -15.64 dB      3:35 08-My Boy
DR14      -0.76 dB   -16.27 dB      5:47 09-Bound For Glory
DR14      -2.34 dB   -19.28 dB      3:02 10-Where Is The Highway Tonight?
--------------------------------------------------------------------------------

Number of tracks:  10
Official DR value: DR13

Samplerate:        44100 Hz
Channels:          2
Bits per sample:   16
Bitrate:           753 kbps
Codec:             FLAC
================================================================================




Create a new paste based on this one


Comments: