[ create a new paste ] login | about

Link: http://codepad.org/ziYe4nY1    [ raw code | fork ]

Plain Text, pasted on Sep 16:
CD 1
->
[CUETools log; Date: 9/16/2019 11:58:39 AM; Version: 2.1.5]
[CTDB TOCID: 9W1oq5ENjHfM3sxEqi3uv4CON0Y-] found.
Track | CTDB Status
  1   | (1/1) Accurately ripped
  2   | (1/1) Accurately ripped
  3   | (1/1) Accurately ripped
  4   | (1/1) Accurately ripped
  5   | (1/1) Accurately ripped
  6   | (1/1) Accurately ripped
  7   | (1/1) Accurately ripped
  8   | (1/1) Accurately ripped
  9   | (1/1) Accurately ripped
 10   | (1/1) Accurately ripped
[AccurateRip ID: 000eee2c-00768dec-76099a0a] found.
Track   [  CRC   |   V2   ] Status
 01     [2fa80e47|ebdea84c] (0+2/2) Accurately ripped
 02     [af4bf44c|6a66d790] (0+2/2) Accurately ripped
 03     [6ff0c7d2|d1468822] (0+2/2) Accurately ripped
 04     [ffaebc4a|d8d8e839] (0+2/2) Accurately ripped
 05     [a88b81f9|957f0f37] (0+2/2) Accurately ripped
 06     [5bb66a9b|09b67cfa] (0+2/2) Accurately ripped
 07     [62586a92|f8106177] (0+2/2) Accurately ripped
 08     [88c6395b|014c0416] (0+2/2) Accurately ripped
 09     [31ea60c1|eb774463] (0+2/2) Accurately ripped
 10     [c217ceb3|f4d6ca8d] (0+2/2) Accurately ripped

Track Peak [ CRC32  ] [W/O NULL] [  LOG   ]
 --   94.3 [46717958] [00AA482F]   CRC32   
 01   94.3 [7DD80803] [6BE559CB]           
 02   94.3 [A91E4274] [4963F2A8]           
 03   94.3 [AFA6E203] [B9E92023]           
 04   94.3 [2EFA4A1D] [B2F4F05C]           
 05   94.3 [5BD0666E] [5D9731A0]           
 06   94.3 [D9B03914] [4F8CF31C]           
 07   94.3 [5374683C] [39D1A50C]           
 08   94.3 [2131FC2A] [5FED61BF]           
 09   94.3 [07DEB4B7] [26DCAB26]           
 10   94.3 [69CF24D5] [4C138726]           
->
=========================================================================================================================================================
->
CD 2
->
[CUETools log; Date: 9/16/2019 11:58:30 AM; Version: 2.1.5]
[CTDB TOCID: LlZ25k4Jijlkji2BKyeedznTBC4-] found.
Track | CTDB Status
  1   | (1/1) Accurately ripped
  2   | (1/1) Accurately ripped
  3   | (1/1) Accurately ripped
  4   | (1/1) Accurately ripped
  5   | (1/1) Accurately ripped
  6   | (1/1) Accurately ripped
  7   | (1/1) Accurately ripped
  8   | (1/1) Accurately ripped
  9   | (1/1) Accurately ripped
 10   | (1/1) Accurately ripped
 11   | (1/1) Accurately ripped
 12   | (1/1) Accurately ripped
 13   | (1/1) Accurately ripped
[AccurateRip ID: 001a82a8-010d4076-ab0d530d] found.
Track   [  CRC   |   V2   ] Status
 01     [f03edf14|5abc9927] (0+2/2) Accurately ripped
 02     [ef11ab5a|5cd459a0] (0+2/2) Accurately ripped
 03     [31708626|310799d7] (0+2/2) Accurately ripped
 04     [a146f0ee|ada88d27] (0+2/2) Accurately ripped
 05     [1498f7a2|7a3fca92] (0+2/2) Accurately ripped
 06     [c1329f8d|ade85eff] (0+2/2) Accurately ripped
 07     [c98aab1e|d08bd1de] (0+2/2) Accurately ripped
 08     [8039f4ea|74b8bf02] (0+2/2) Accurately ripped
 09     [ec34f89d|a7ac52e3] (0+2/2) Accurately ripped
 10     [06db6a9d|0d3053c7] (0+2/2) Accurately ripped
 11     [b306693b|a699776c] (0+2/2) Accurately ripped
 12     [cdec39c5|22abbe9c] (0+2/2) Accurately ripped
 13     [c1257c50|615e717d] (0+2/2) Accurately ripped

Track Peak [ CRC32  ] [W/O NULL] [  LOG   ]
 --   99.9 [DBB3FACF] [6C0ED2DD]   CRC32   
 01   99.9 [A10A8952] [7EDD4D6C]           
 02   95.0 [E04E70D3] [19379799]           
 03   85.1 [57C8FB18] [F6A465D3]           
 04   83.1 [5F1BB249] [A57DEF07]           
 05   87.0 [7261995D] [ACF2A131]           
 06   82.2 [947EF069] [24536B93]           
 07   83.1 [1CD23C00] [9069B13F]           
 08   94.3 [7D9CF291] [0B520181]           
 09   75.8 [A19179FC] [935AE922]           
 10   85.1 [EEEE8BE0] [1397F140]           
 11   94.3 [589D7634] [8C6FB7BE]           
 12   89.2 [C9910C24] [0EF40EE0]           
 13   76.7 [5603FE98] [D2CE751C]           



Create a new paste based on this one


Comments: