[ create a new paste ] login | about

Link: http://codepad.org/zjDCMM6M    [ raw code | fork ]

Plain Text, pasted on Jan 22:
foobar2000 1.5 / Dynamic Range Meter 1.1.1
log date: 2020-01-22 19:22:45

--------------------------------------------------------------------------------
Analyzed: Junior Wells / Hoodoo Man Blues
--------------------------------------------------------------------------------

DR         Peak         RMS     Duration Track
--------------------------------------------------------------------------------
DR11      -7.59 dB   -22.08 dB      2:54 01-Snatch It Back And Hold It
DR12      -6.39 dB   -23.58 dB      4:09 02-Ships On The Ocean
DR11      -8.16 dB   -22.23 dB      3:58 03-Good Morning Schoolgirl
DR11      -7.45 dB   -21.95 dB      2:11 04-Hound Dog
DR13      -6.56 dB   -23.67 dB      3:49 05-In The Wee Hours
DR10      -7.78 dB   -21.78 dB      3:16 06-Hey Lawdy Mama
DR12      -7.57 dB   -22.62 dB      2:09 07-Hoodoo Man Blues
DR11      -8.56 dB   -23.00 dB      4:51 08-Early In The Morning
DR11      -7.65 dB   -22.11 dB      3:45 09-We're Ready
DR12      -7.15 dB   -22.51 dB      2:27 10-You Don't Love Me Baby
DR9       -8.84 dB   -22.66 dB      2:16 11-Chitlin Con Carne
DR11      -7.22 dB   -21.34 dB      4:14 12-Yonder Wall
--------------------------------------------------------------------------------

Number of tracks:  12
Official DR value: DR11

Samplerate:        2822400 Hz / PCM Samplerate: 44100 Hz
Channels:          2
Bits per sample:   1
Bitrate:           5645 kbps
Codec:             DSD64
================================================================================




Create a new paste based on this one


Comments: