[ create a new paste ] login | about

Link: http://codepad.org/zkIOBHyE    [ raw code | fork ]

Plain Text, pasted on Aug 1:
[CUETools log; Date: 8/1/2019 11:46:14 AM; Version: 2.1.5]
CD-Extra data track length 23:20:07.
[CTDB TOCID: .q.5BZjfHECOcLUDuruXUUBo8_w-] found.
Track | CTDB Status
  1   | (3508/3520) Accurately ripped
  2   | (3505/3520) Accurately ripped
  3   | (3504/3520) Accurately ripped
  4   | (3506/3520) Accurately ripped
  5   | (3508/3520) Accurately ripped
  6   | (3507/3520) Accurately ripped
  7   | (3504/3520) Accurately ripped
  8   | (3505/3520) Accurately ripped
  9   | (3502/3520) Accurately ripped
 10   | (3499/3520) Accurately ripped
 11   | (3501/3520) Accurately ripped
 12   | (3509/3520) Accurately ripped
 13   | (3502/3520) Accurately ripped
 14   | (3499/3520) Accurately ripped
[AccurateRip ID: 00146cb3-00e14f05-ce0e640f] found.
Track   [  CRC   |   V2   ] Status
 01     [73f56dfe|39e1bade] (200+200/979) Accurately ripped
 02     [01b1c610|cb1e1271] (200+200/981) Accurately ripped
 03     [2b576f9d|1eeeb5d9] (200+200/978) Accurately ripped
 04     [7d6d2fa0|ffc6a9f6] (200+200/983) Accurately ripped
 05     [84be9087|ecf488f6] (200+200/977) Accurately ripped
 06     [bd27cecd|8cbb1ef6] (200+200/977) Accurately ripped
 07     [de920685|2cb84673] (200+200/976) Accurately ripped
 08     [b0d75cf8|1d4a0f85] (200+200/985) Accurately ripped
 09     [3324d755|7ae6e742] (200+200/984) Accurately ripped
 10     [5cb93db5|3ce66e4d] (200+200/979) Accurately ripped
 11     [6fcf7a3a|f51002a4] (200+200/980) Accurately ripped
 12     [5752f83b|843f7cb4] (200+200/973) Accurately ripped
 13     [d9b8f759|430a12f2] (200+200/974) Accurately ripped
 14     [6259c73a|2345b73a] (200+200/972) Accurately ripped
Offsetted by -837:
 01     [67b34c80] (003/979) Accurately ripped
 02     [03d1f3d1] (003/981) Accurately ripped
 03     [387893e3] (003/978) Accurately ripped
 04     [9bfa5906] (003/983) Accurately ripped
 05     [c4cc4592] (003/977) Accurately ripped
 06     [001fb0a7] (003/977) Accurately ripped
 07     [39b6c963] (003/976) Accurately ripped
 08     [fc68d9c3] (003/985) Accurately ripped
 09     [429a4156] (003/984) Accurately ripped
 10     [2e59d7c6] (003/979) Accurately ripped
 11     [5380c918] (003/980) Accurately ripped
 12     [35c879ff] (002/973) Accurately ripped
 13     [478a85d1] (003/974) Accurately ripped
 14     [f9056804] (003/972) Accurately ripped
Offsetted by -706:
 01     [3fd02ab7] (002/979) Accurately ripped
 02     [31a78e7f] (002/981) Accurately ripped
 03     [ea431737] (002/978) Accurately ripped
 04     [dc9cdffe] (002/983) Accurately ripped
 05     [28daa078] (002/977) Accurately ripped
 06     [287274f2] (002/977) Accurately ripped
 07     [a422f6a6] (002/976) Accurately ripped
 08     [ce9b0fdc] (002/985) Accurately ripped
 09     [87eb7b8a] (002/984) Accurately ripped
 10     [9d17b0bf] (002/979) Accurately ripped
 11     [3061c503] (002/980) Accurately ripped
 12     [a00fcf6f] (002/973) Accurately ripped
 13     [eca25251] (002/974) Accurately ripped
 14     [84575d3d] (002/972) Accurately ripped
Offsetted by -694:
 01     [bb0edd46] (004/979) Accurately ripped
 02     [31dd4db3] (004/981) Accurately ripped
 03     [a99e76cf] (004/978) Accurately ripped
 04     [fe0cec17] (004/983) Accurately ripped
 05     [c9e921ec] (004/977) Accurately ripped
 06     [4017859f] (004/977) Accurately ripped
 07     [f4a9e490] (004/976) Accurately ripped
 08     [8a9af3f3] (004/985) Accurately ripped
 09     [9fa05998] (004/984) Accurately ripped
 10     [c09cfaf1] (004/979) Accurately ripped
 11     [5e88daa1] (004/980) Accurately ripped
 12     [8a5a8627] (004/973) Accurately ripped
 13     [3fd5708d] (004/974) Accurately ripped
 14     [59ef92e1] (004/972) Accurately ripped
Offsetted by -676:
 01     [68cd9f2d] (002/979) Accurately ripped
 02     [21aec120] (002/981) Accurately ripped
 03     [fdb73402] (002/978) Accurately ripped
 04     [4b26fc68] (002/983) Accurately ripped
 05     [bbe5861c] (002/977) Accurately ripped
 06     [79919bbe] (002/977) Accurately ripped
 07     [89be36c4] (002/976) Accurately ripped
 08     [fd61d6b7] (002/985) Accurately ripped
 09     [99a70ba0] (002/984) Accurately ripped
 10     [d2ca4cab] (002/979) Accurately ripped
 11     [da8969ed] (002/980) Accurately ripped
 12     [6ab92c5e] (002/973) Accurately ripped
 13     [ded80d23] (002/974) Accurately ripped
 14     [99506221] (002/972) Accurately ripped
Offsetted by -216:
 01     [cd77fd26] (005/979) Accurately ripped
 02     [91592c64] (005/981) Accurately ripped
 03     [270ea12a] (005/978) Accurately ripped
 04     [98ad03fb] (005/983) Accurately ripped
 05     [462738a1] (005/977) Accurately ripped
 06     [0223c107] (005/977) Accurately ripped
 07     [e122cf09] (005/976) Accurately ripped
 08     [6375bb70] (005/985) Accurately ripped
 09     [a0b4a246] (005/984) Accurately ripped
 10     [13c2c07c] (005/979) Accurately ripped
 11     [eb3b6ee2] (005/980) Accurately ripped
 12     [3e2ce31a] (005/973) Accurately ripped
 13     [19ff8a69] (005/974) Accurately ripped
 14     [a92200f3] (004/972) Accurately ripped
Offsetted by -48:
 01     [121a6db8] (002/979) Accurately ripped
 02     [647c25d9] (002/981) Accurately ripped
 03     [f9d6fb8b] (002/978) Accurately ripped
 04     [7225cd36] (002/983) Accurately ripped
 05     [a20a832c] (002/977) Accurately ripped
 06     [2d71b881] (002/977) Accurately ripped
 07     [8889eb2b] (002/976) Accurately ripped
 08     [1299bc41] (002/985) Accurately ripped
 09     [aacc3781] (002/984) Accurately ripped
 10     [e43ff2cc] (002/979) Accurately ripped
 11     [a0438fb4] (002/980) Accurately ripped
 12     [41209537] (002/973) Accurately ripped
 13     [6babd051] (002/974) Accurately ripped
 14     [22ab3de2] (002/972) Accurately ripped
Offsetted by -30:
 01     [e481cedb] (006/979) Accurately ripped
 02     [8fa88a32] (006/981) Accurately ripped
 03     [c65499c8] (006/978) Accurately ripped
 04     [5994afc6] (006/983) Accurately ripped
 05     [eaa8c04b] (006/977) Accurately ripped
 06     [a7bbfb31] (006/977) Accurately ripped
 07     [cd96c108] (007/976) Accurately ripped
 08     [30da565f] (006/985) Accurately ripped
 09     [13a63067] (006/984) Accurately ripped
 10     [af16fb9b] (006/979) Accurately ripped
 11     [cf05a1db] (006/980) Accurately ripped
 12     [472a1966] (006/973) Accurately ripped
 13     [734be4af] (006/974) Accurately ripped
 14     [57b8ef10] (006/972) Accurately ripped
Offsetted by -19:
 01     [ce007530] (002/979) Accurately ripped
 02     [d0332181] (002/981) Accurately ripped
 03     [9402a708] (002/978) Accurately ripped
 04     [3de9195a] (002/983) Accurately ripped
 05     [1718ab21] (002/977) Accurately ripped
 06     [cbf91c55] (002/977) Accurately ripped
 07     [b6e4e4bb] (002/976) Accurately ripped
 08     [d453f23f] (002/985) Accurately ripped
 09     [ff4e0a77] (002/984) Accurately ripped
 10     [00f989bf] (002/979) Accurately ripped
 11     [77f0c710] (002/980) Accurately ripped
 12     [d1d4fbf2] (002/973) Accurately ripped
 13     [1d825fb4] (002/974) Accurately ripped
 14     [9682a3e4] (002/972) Accurately ripped
Offsetted by -6:
 01     [ffc72f2e] (003/979) Accurately ripped
 02     [98b4ddf2] (003/981) Accurately ripped
 03     [1a7b38f3] (003/978) Accurately ripped
 04     [00379fb0] (003/983) Accurately ripped
 05     [14d6cfc9] (003/977) Accurately ripped
 06     [76b58f18] (003/977) Accurately ripped
 07     [731e3b65] (003/976) Accurately ripped
 08     [17bdcaa3] (003/985) Accurately ripped
 09     [5959ce13] (003/984) Accurately ripped
 10     [9ba737a8] (004/979) Accurately ripped
 11     [770d4d7d] (004/980) Accurately ripped
 12     [377e5777] (003/973) Accurately ripped
 13     [b18ad322] (004/974) Accurately ripped
 14     [f94634f3] (003/972) Accurately ripped
Offsetted by 6:
 01     [fd42d3c6] (200/979) Accurately ripped
 02     [80b63886] (200/981) Accurately ripped
 03     [00c7df5e] (200/978) Accurately ripped
 04     [4cc4b63c] (200/983) Accurately ripped
 05     [a8502a90] (200/977) Accurately ripped
 06     [0e5b45ed] (200/977) Accurately ripped
 07     [9a354b32] (200/976) Accurately ripped
 08     [60585ede] (200/985) Accurately ripped
 09     [cdeabe68] (200/984) Accurately ripped
 10     [a985d378] (200/979) Accurately ripped
 11     [456ee500] (200/980) Accurately ripped
 12     [41409993] (200/973) Accurately ripped
 13     [c8599371] (200/974) Accurately ripped
 14     [cbbd59c9] (200/972) Accurately ripped
Offsetted by -667:
 01     [61013564] (000/979) No match (V2 was not tested)
 02     [034c5897] (000/981) No match (V2 was not tested)
 03     [45ddcd26] (000/978) No match (V2 was not tested)
 04     [5bb758ab] (000/983) No match (V2 was not tested)
 05     [6affcb15] (000/977) No match (V2 was not tested)
 06     [a5277be8] (000/977) No match (V2 was not tested)
 07     [90bcda49] (000/976) No match (V2 was not tested)
 08     [87b624fa] (000/985) No match (V2 was not tested)
 09     [8c326a90] (000/984) No match (V2 was not tested)
 10     [955201e6] (000/979) No match (V2 was not tested)
 11     [6dda6568] (000/980) No match (V2 was not tested)
 12     [581add53] (000/973) No match (V2 was not tested)
 13     [46e8b9c7] (000/974) No match (V2 was not tested)
 14     [b855493f] (000/972) No match (V2 was not tested)
Offsetted by -664:
 01     [1659780d] (000/979) No match (V2 was not tested)
 02     [21d679f5] (000/981) No match (V2 was not tested)
 03     [572242c5] (000/978) No match (V2 was not tested)
 04     [e6d3c7a0] (000/983) No match (V2 was not tested)
 05     [58206b70] (000/977) No match (V2 was not tested)
 06     [c0a5cd86] (000/977) No match (V2 was not tested)
 07     [d38985a1] (000/976) No match (V2 was not tested)
 08     [85eee2dd] (000/985) No match (V2 was not tested)
 09     [2931bc21] (000/984) No match (V2 was not tested)
 10     [05a48c43] (000/979) No match (V2 was not tested)
 11     [a96c2fd5] (000/980) No match (V2 was not tested)
 12     [da804735] (000/973) No match (V2 was not tested)
 13     [7547a3de] (000/974) No match (V2 was not tested)
 14     [6d28961b] (000/972) No match (V2 was not tested)
Offsetted by -210:
 01     [c83e3b17] (000/979) No match (V2 was not tested)
 02     [9ab9a5eb] (000/981) No match (V2 was not tested)
 03     [96eadad2] (000/978) No match (V2 was not tested)
 04     [928d2df3] (000/983) No match (V2 was not tested)
 05     [30e3782d] (000/977) No match (V2 was not tested)
 06     [d713195d] (000/977) No match (V2 was not tested)
 07     [db22c667] (000/976) No match (V2 was not tested)
 08     [efea870e] (000/985) No match (V2 was not tested)
 09     [c5c79df8] (000/984) No match (V2 was not tested)
 10     [59c54e96] (000/979) No match (V2 was not tested)
 11     [4a0fb842] (000/980) No match (V2 was not tested)
 12     [05e9de08] (000/973) No match (V2 was not tested)
 13     [941b6a80] (000/974) No match (V2 was not tested)
 14     [023d8826] (000/972) No match (V2 was not tested)
Offsetted by -132:
 01     [e7cef7a6] (000/979) No match (V2 was not tested)
 02     [ab325d19] (000/981) No match (V2 was not tested)
 03     [7fcf8434] (000/978) No match (V2 was not tested)
 04     [7bd78043] (000/983) No match (V2 was not tested)
 05     [69db2613] (000/977) No match (V2 was not tested)
 06     [d0cd8650] (000/977) No match (V2 was not tested)
 07     [8878f1c4] (000/976) No match (V2 was not tested)
 08     [1587ce29] (000/985) No match (V2 was not tested)
 09     [0072f296] (000/984) No match (V2 was not tested)
 10     [e690849a] (000/979) No match (V2 was not tested)
 11     [16c4378d] (000/980) No match (V2 was not tested)
 12     [f4b2d472] (000/973) No match (V2 was not tested)
 13     [8153e678] (000/974) No match (V2 was not tested)
 14     [b5997e79] (000/972) No match (V2 was not tested)
Offsetted by -120:
 01     [7e2baa2b] (000/979) No match (V2 was not tested)
 02     [0189a886] (000/981) No match (V2 was not tested)
 03     [8c2b414c] (000/978) No match (V2 was not tested)
 04     [030e8b0c] (000/983) No match (V2 was not tested)
 05     [667cdb1b] (000/977) No match (V2 was not tested)
 06     [d3c7f49a] (000/977) No match (V2 was not tested)
 07     [b1acfc57] (000/976) No match (V2 was not tested)
 08     [2852aa88] (000/985) No match (V2 was not tested)
 09     [e5690115] (000/984) No match (V2 was not tested)
 10     [869f1ec5] (000/979) No match (V2 was not tested)
 11     [5ba8014b] (000/980) No match (V2 was not tested)
 12     [a211b19e] (000/973) No match (V2 was not tested)
 13     [3f4c8c8e] (000/974) No match (V2 was not tested)
 14     [765195d0] (000/972) No match (V2 was not tested)
Offsetted by -78:
 01     [4e019010] (000/979) No match (V2 was not tested)
 02     [d1d6a5a7] (000/981) No match (V2 was not tested)
 03     [7fb9df5c] (000/978) No match (V2 was not tested)
 04     [a1ef8f64] (000/983) No match (V2 was not tested)
 05     [aaa5a741] (000/977) No match (V2 was not tested)
 06     [e2d18ef4] (000/977) No match (V2 was not tested)
 07     [262a34a4] (000/976) No match (V2 was not tested)
 08     [7a3f3ee2] (000/985) No match (V2 was not tested)
 09     [95e4b8f2] (000/984) No match (V2 was not tested)
 10     [0552e688] (000/979) No match (V2 was not tested)
 11     [c0850e0e] (000/980) No match (V2 was not tested)
 12     [83ad6653] (000/973) No match (V2 was not tested)
 13     [f1843ad8] (000/974) No match (V2 was not tested)
 14     [287c71e3] (000/972) No match (V2 was not tested)
Offsetted by -66:
 01     [dbd4952b] (000/979) No match (V2 was not tested)
 02     [1eb80df2] (000/981) No match (V2 was not tested)
 03     [7d95ef92] (000/978) No match (V2 was not tested)
 04     [b80b704c] (000/983) No match (V2 was not tested)
 05     [f762222a] (000/977) No match (V2 was not tested)
 06     [72eb255b] (000/977) No match (V2 was not tested)
 07     [3e60d360] (000/976) No match (V2 was not tested)
 08     [f4ab2f15] (000/985) No match (V2 was not tested)
 09     [0cf6e40f] (000/984) No match (V2 was not tested)
 10     [129adc37] (000/979) No match (V2 was not tested)
 11     [4bb673da] (000/980) No match (V2 was not tested)
 12     [d5a97a0f] (000/973) No match (V2 was not tested)
 13     [18b7fa53] (000/974) No match (V2 was not tested)
 14     [f1e98f61] (000/972) No match (V2 was not tested)
Offsetted by -54:
 01     [9b542247] (000/979) No match (V2 was not tested)
 02     [44ba15ca] (000/981) No match (V2 was not tested)
 03     [0c191d2b] (000/978) No match (V2 was not tested)
 04     [6ddc288b] (000/983) No match (V2 was not tested)
 05     [472c76cc] (000/977) No match (V2 was not tested)
 06     [10e3eb5c] (000/977) No match (V2 was not tested)
 07     [a54cde89] (000/976) No match (V2 was not tested)
 08     [b6cb2c7c] (000/985) No match (V2 was not tested)
 09     [3d6dd38f] (000/984) No match (V2 was not tested)
 10     [1c2ae754] (000/979) No match (V2 was not tested)
 11     [c4a95ee1] (000/980) No match (V2 was not tested)
 12     [3c37e8e1] (000/973) No match (V2 was not tested)
 13     [95e4508b] (000/974) No match (V2 was not tested)
 14     [bca0ae08] (000/972) No match (V2 was not tested)
Offsetted by -18:
 01     [03b944c2] (000/979) No match (V2 was not tested)
 02     [e9579954] (000/981) No match (V2 was not tested)
 03     [1a1221cb] (000/978) No match (V2 was not tested)
 04     [1359f229] (000/983) No match (V2 was not tested)
 05     [a3fa280f] (000/977) No match (V2 was not tested)
 06     [40ba844b] (000/977) No match (V2 was not tested)
 07     [528d9855] (000/976) No match (V2 was not tested)
 08     [60eb5866] (000/985) No match (V2 was not tested)
 09     [9f6cf40f] (000/984) No match (V2 was not tested)
 10     [a293163d] (000/979) No match (V2 was not tested)
 11     [4908f2b2] (000/980) No match (V2 was not tested)
 12     [d861adc9] (000/973) No match (V2 was not tested)
 13     [0a71cc98] (000/974) No match (V2 was not tested)
 14     [27e61176] (000/972) No match (V2 was not tested)
Offsetted by -12:
 01     [fed4979d] (000/979) No match (V2 was not tested)
 02     [7c4997dd] (000/981) No match (V2 was not tested)
 03     [10001f22] (000/978) No match (V2 was not tested)
 04     [534e35d1] (000/983) No match (V2 was not tested)
 05     [4a838b01] (000/977) No match (V2 was not tested)
 06     [e54093fc] (000/977) No match (V2 was not tested)
 07     [fb5ff73a] (000/976) No match (V2 was not tested)
 08     [6b84f62e] (000/985) No match (V2 was not tested)
 09     [846c164f] (000/984) No match (V2 was not tested)
 10     [69392c60] (000/979) No match (V2 was not tested)
 11     [f6c888df] (000/980) No match (V2 was not tested)
 12     [0fa95f1b] (000/973) No match (V2 was not tested)
 13     [540b03ce] (000/974) No match (V2 was not tested)
 14     [9068a311] (000/972) No match (V2 was not tested)
Offsetted by 12:
 01     [b5d8a596] (000/979) No match (V2 was not tested)
 02     [021f50ba] (000/981) No match (V2 was not tested)
 03     [817d4f84] (000/978) No match (V2 was not tested)
 04     [b5741552] (000/983) No match (V2 was not tested)
 05     [114e8ecb] (000/977) No match (V2 was not tested)
 06     [df20c9f7] (000/977) No match (V2 was not tested)
 07     [fa39e0d0] (000/976) No match (V2 was not tested)
 08     [3dccd07f] (000/985) No match (V2 was not tested)
 09     [cb984e17] (000/984) No match (V2 was not tested)
 10     [6cb9d4ca] (000/979) No match (V2 was not tested)
 11     [48585f07] (000/980) No match (V2 was not tested)
 12     [c7452008] (000/973) No match (V2 was not tested)
 13     [a5f6736f] (000/974) No match (V2 was not tested)
 14     [357dec74] (000/972) No match (V2 was not tested)

Track Peak [ CRC32  ] [W/O NULL] [  LOG   ]
 --   95.6 [CA2C539E] [0D592D6E]   CRC32   
 01   94.9 [1287124F] [BBE0D10B]           
 02   95.0 [1591F7B1] [702FDBAF]           
 03   95.0 [6DF525FD] [82B0A893]           
 04   94.7 [21BDD245] [F26A4A5E]           
 05   95.6 [7986081D] [50D425AD]           
 06   94.7 [B11E7EF9] [D797C508]           
 07   94.7 [1EC1D411] [EEFD6659]           
 08   95.3 [D076958C] [2CB1EF2B]           
 09   94.7 [3EF2C31E] [CD30C505]           
 10   95.0 [02D170BD] [2730169F]           
 11   95.3 [F45FD5D3] [ACE4D4CA]           
 12   94.7 [8EBE7BFA] [3E1C4B9B]           
 13   95.3 [ED00C7A1] [3017FB71]           
 14   95.2 [B9FBF10C] [E04191C5]           



Create a new paste based on this one


Comments: