[ create a new paste ] login | about

Link: http://codepad.org/zmXxQ8r1    [ raw code | fork ]

Plain Text, pasted on Dec 17:
Exact Audio Copy V1.0 beta 3 from 29. August 2011

EAC extraction logfile from 13. August 2013, 17:56

The Beatles with Tony Sheridan / Single Box CD3

Used drive  : PLEXTOR BD-R  PX-B950SA   Adapter: 6  ID: 0

Read mode               : Secure
Utilize accurate stream : Yes
Defeat audio cache      : Yes
Make use of C2 pointers : No

Read offset correction                      : 6
Overread into Lead-In and Lead-Out          : No
Fill up missing offset samples with silence : Yes
Delete leading and trailing silent blocks   : No
Null samples used in CRC calculations       : Yes
Used interface                              : Native Win32 interface for Win NT & 2000

Used output format : Internal WAV Routines
Sample format      : 44.100 Hz; 16 Bit; Stereo


TOC of the extracted CD

     Track |   Start  |  Length  | Start sector | End sector 
    ---------------------------------------------------------
        1  |  0:00.00 |  3:05.11 |         0    |    13885   
        2  |  3:05.11 |  2:30.20 |     13886    |    25155   
        3  |  5:35.31 |  3:01.70 |     25156    |    38800   
        4  |  8:37.26 |  2:24.35 |     38801    |    49635   


Range status and errors

Selected range

     Filename C:\The Beatles\2013 Single Box (9 SHM-CD Box Set Universal Music Japan)\CD3\The Beatles with Tony Sheridan - Single Box CD3.wav

     Peak level 99.9 %
     Extraction speed 6.2 X
     Range quality 100.0 %
     Test CRC 45BCE1F7
     Copy CRC 45BCE1F7
     Copy OK

No errors occurred

 
AccurateRip summary
 
Track  1  not present in database
Track  2  not present in database
Track  3  not present in database
Track  4  not present in database
 
None of the tracks are present in the AccurateRip database

End of status report

==== Log checksum FDBE8CC248E2A4D3EB1F0701C193B66B948638BC98EC9A595D84011E9A4FB6B9 ====



Create a new paste based on this one


Comments: