[ create a new paste ] login | about

Link: http://codepad.org/zvezu6y9    [ raw code | fork ]

Plain Text, pasted on Jul 9:
Exact Audio Copy V1.0 beta 3 from 29. August 2011

EAC extraction logfile from 2. April 2016, 12:49

 Ben Liebrand / Grand 12-Inches 14

Used drive  : MATSHITADVD-RAM UJ8FBS   Adapter: 0  ID: 0

Read mode               : Secure
Utilize accurate stream : Yes
Defeat audio cache      : Yes
Make use of C2 pointers : No

Read offset correction                      : 6
Overread into Lead-In and Lead-Out          : No
Fill up missing offset samples with silence : Yes
Delete leading and trailing silent blocks   : No
Null samples used in CRC calculations       : Yes
Used interface                              : Native Win32 interface for Win NT & 2000
Gap handling                                : Appended to previous track

Used output format              : User Defined Encoder
Selected bitrate                : 896 kBit/s
Quality                         : High
Add ID3 tag                     : No
Command line compressor         : C:\Program Files (x86)\FLAC\flac.exe
Additional command line options : -8 -V -T "ARTIST=%artist%" -T "TITLE=%title%" -T "ALBUM=%albumtitle%" -T "DATE=%year%" -T "TRACKNUMBER=%tracknr%" -T "GENRE=%genre%" -T "PERFORMER=%albuminterpret%" -T "COMPOSER=%composer%" %haslyrics%--tag-from-file=LYRICS="%lyricsfile%"%haslyrics% -T "ALBUMARTIST=%albumartist%" -T "DISCNUMBER=%cdnumber%" -T "TOTALDISCS=%totalcds%" -T "TOTALTRACKS=%numtracks%" -T "COMMENT=%comment%" %source% -o %dest%


TOC of the extracted CD

     Track |   Start  |  Length  | Start sector | End sector 
    ---------------------------------------------------------
        1  |  0:00.00 |  6:18.23 |         0    |    28372   
        2  |  6:18.23 |  7:09.00 |     28373    |    60547   
        3  | 13:27.23 |  8:02.45 |     60548    |    96742   
        4  | 21:29.68 |  7:26.25 |     96743    |   130217   
        5  | 28:56.18 |  9:10.18 |    130218    |   171485   
        6  | 38:06.36 |  6:47.00 |    171486    |   202010   
        7  | 44:53.36 |  6:24.67 |    202011    |   230877   
        8  | 51:18.28 |  7:14.61 |    230878    |   263488   
        9  | 58:33.14 |  6:43.45 |    263489    |   293758   
       10  | 65:16.59 |  6:07.50 |    293759    |   321333   


Track  1

     Filename C:\Users\alessandro\Desktop\what.cd\Grand 12-Inches 14\01 Tavares Don't Take Away The Music (Album Version).wav

     Pre-gap length  0:00:02.00

     Peak level 98.8 %
     Extraction speed 2.5 X
     Track quality 100.0 %
     Test CRC BA5DFE84
     Copy CRC BA5DFE84
     Track not present in AccurateRip database
     Copy OK

Track  2

     Filename C:\Users\alessandro\Desktop\what.cd\Grand 12-Inches 14\02 Shalamar The Second Time Around (12 Inch Disco Version).wav

     Pre-gap length  0:00:02.00

     Peak level 98.8 %
     Extraction speed 3.8 X
     Track quality 100.0 %
     Test CRC 067C3ECD
     Copy CRC 067C3ECD
     Track not present in AccurateRip database
     Copy OK

Track  3

     Filename C:\Users\alessandro\Desktop\what.cd\Grand 12-Inches 14\03 Jermaine Jackson Let's Get Serious (Album Version).wav

     Pre-gap length  0:00:02.00

     Peak level 98.8 %
     Extraction speed 4.3 X
     Track quality 100.0 %
     Test CRC FC00CAA3
     Copy CRC FC00CAA3
     Track not present in AccurateRip database
     Copy OK

Track  4

     Filename C:\Users\alessandro\Desktop\what.cd\Grand 12-Inches 14\04 Diana Ross The Boss (12'' Remix).wav

     Pre-gap length  0:00:02.00

     Peak level 98.8 %
     Extraction speed 4.8 X
     Track quality 100.0 %
     Test CRC 37995451
     Copy CRC 37995451
     Track not present in AccurateRip database
     Copy OK

Track  5

     Filename C:\Users\alessandro\Desktop\what.cd\Grand 12-Inches 14\05 The Four Tops Loco In Acapulco (PH Full Balance Mix).wav

     Pre-gap length  0:00:02.00

     Peak level 83.1 %
     Extraction speed 4.3 X
     Track quality 100.0 %
     Test CRC FA9775EB
     Copy CRC FA9775EB
     Track not present in AccurateRip database
     Copy OK

Track  6

     Filename C:\Users\alessandro\Desktop\what.cd\Grand 12-Inches 14\06 Loose Ends Emergency (Dial 999) (Extended Version).wav

     Pre-gap length  0:00:02.00

     Peak level 98.8 %
     Extraction speed 4.9 X
     Track quality 99.9 %
     Test CRC 93CFFDF0
     Copy CRC 93CFFDF0
     Track not present in AccurateRip database
     Copy OK

Track  7

     Filename C:\Users\alessandro\Desktop\what.cd\Grand 12-Inches 14\07 Leroy Burgess Stranger (Shep Pettibone Mix).wav

     Pre-gap length  0:00:02.00

     Peak level 98.8 %
     Extraction speed 5.8 X
     Track quality 100.0 %
     Test CRC 8504835E
     Copy CRC 8504835E
     Track not present in AccurateRip database
     Copy OK

Track  8

     Filename C:\Users\alessandro\Desktop\what.cd\Grand 12-Inches 14\08 Voyage From East To West (12'' Mix).wav

     Pre-gap length  0:00:02.00

     Peak level 99.9 %
     Extraction speed 6.1 X
     Track quality 100.0 %
     Test CRC 80CC1B8C
     Copy CRC 80CC1B8C
     Track not present in AccurateRip database
     Copy OK

Track  9

     Filename C:\Users\alessandro\Desktop\what.cd\Grand 12-Inches 14\09 Chocolate Milk Who's Getting It Now (12'' Version).wav

     Pre-gap length  0:00:02.00

     Peak level 98.8 %
     Extraction speed 6.3 X
     Track quality 100.0 %
     Test CRC 9EAA5047
     Copy CRC 9EAA5047
     Track not present in AccurateRip database
     Copy OK

Track 10

     Filename C:\Users\alessandro\Desktop\what.cd\Grand 12-Inches 14\10 Ashford & Simpson Bourgie Bourgie (Instrumental).wav

     Pre-gap length  0:00:02.00

     Peak level 96.3 %
     Extraction speed 6.6 X
     Track quality 100.0 %
     Test CRC 5F238E83
     Copy CRC 5F238E83
     Track not present in AccurateRip database
     Copy OK


None of the tracks are present in the AccurateRip database

No errors occurred

End of status report

---- CUETools DB Plugin V2.1.3

[CTDB TOCID: xQllnVhpZ0IHlEWrP_ngp_iUK6A-] found, Submit result: xQllnVhpZ0IHlEWrP_ngp_iUK6A- has been confirmed
[66d3f7a5] (10/10) Accurately ripped


==== Log checksum 478467F13B7847313950E011BB206B89CD1A886FE1965288526B6A2CF56515B8 ====



Create a new paste based on this one


Comments: