[ create a new paste ] login | about

Link: http://codepad.org/zvfjWUQS    [ raw code | fork ]

Plain Text, pasted on Aug 1:
[CUETools log; Date: 8/1/2019 11:44:32 AM; Version: 2.1.5]
CD-Extra data track length 25:23:20.
[CTDB TOCID: AvEuponsvJhUpwsCyCEeUUwRKYs-] found.
Track | CTDB Status
  1   | (4158/4202) Accurately ripped
  2   | (4157/4202) Accurately ripped, or (7/4202) differs in 1176 samples @00:00:00-00:00:01
  3   | (4145/4202) Accurately ripped, or (7/4202) differs in 1134 samples @00:00:00-00:00:01
  4   | (4139/4202) Accurately ripped, or (7/4202) differs in 1115 samples @00:00:00-00:00:01
  5   | (4175/4202) Accurately ripped, or (7/4202) differs in 1116 samples @00:00:00-00:00:01
  6   | (4163/4202) Accurately ripped, or (7/4202) differs in 1128 samples @00:00:00-00:00:01
  7   | (4152/4202) Accurately ripped, or (7/4202) differs in 1145 samples @00:00:00-00:00:01
  8   | (4137/4202) Accurately ripped, or (7/4202) differs in 1110 samples @00:00:00-00:00:01
  9   | (4161/4202) Accurately ripped, or (7/4202) differs in 1152 samples @00:00:00-00:00:01
 10   | (4175/4202) Accurately ripped, or (7/4202) differs in 1123 samples @00:00:00-00:00:01
 11   | (4171/4202) Accurately ripped, or (7/4202) differs in 1138 samples @00:00:00-00:00:01
 12   | (4163/4202) Accurately ripped, or (7/4202) differs in 1169 samples @00:00:00-00:00:01
 13   | (4156/4202) Accurately ripped, or (2/4202) differs in 2 samples @05:03:10, or (7/4202) differs in 1176 samples @00:00:00-00:00:01
[AccurateRip ID: 00144057-00d47100-db0fe60e] found.
Track   [  CRC   |   V2   ] Status
 01     [911982ca|8cc6907f] (200+200/1003) Accurately ripped
 02     [8e72bae1|f0e6a522] (200+200/1004) Accurately ripped
 03     [d237e69d|cd7d36f4] (200+200/1002) Accurately ripped
 04     [8b3718c1|c80a5fc7] (200+200/1002) Accurately ripped
 05     [022718c4|d0168d5a] (200+200/1002) Accurately ripped
 06     [5e22ab89|863c37ab] (200+200/998) Accurately ripped
 07     [38ba0f32|848d10cc] (200+200/999) Accurately ripped
 08     [b82e0d4a|850bded7] (200+200/995) Accurately ripped
 09     [4066fe35|d0d9468f] (200+200/999) Accurately ripped
 10     [0ea487e4|e7f30b93] (200+200/999) Accurately ripped
 11     [ea6ca871|3b712b27] (200+200/996) Accurately ripped
 12     [14bc7f48|9b6f3493] (200+200/999) Accurately ripped
 13     [3f81f413|a7627559] (200+200/992) Accurately ripped
Offsetted by -862:
 01     [8a1ceae6] (004/1003) Accurately ripped
 02     [6e040398] (004/1004) Accurately ripped
 03     [ab277077] (004/1002) Accurately ripped
 04     [8df47486] (004/1002) Accurately ripped
 05     [17f58562] (004/1002) Accurately ripped
 06     [380e2740] (004/998) Accurately ripped
 07     [9483e7b7] (004/999) Accurately ripped
 08     [17919894] (004/995) Accurately ripped
 09     [97eba69c] (004/999) Accurately ripped
 10     [3f488386] (004/999) Accurately ripped
 11     [62d9a1ac] (004/996) Accurately ripped
 12     [cb87e5fe] (004/999) Accurately ripped
 13     [dd87fb2d] (004/992) Accurately ripped
Offsetted by -694:
 01     [f02f1a2d] (004/1003) Accurately ripped
 02     [c0c4dd95] (004/1004) Accurately ripped
 03     [64202746] (004/1002) Accurately ripped
 04     [3ed0b7b6] (004/1002) Accurately ripped
 05     [76cc336b] (004/1002) Accurately ripped
 06     [046f5054] (004/998) Accurately ripped
 07     [3e3b01cb] (004/999) Accurately ripped
 08     [7eb029c7] (004/995) Accurately ripped
 09     [172fa322] (004/999) Accurately ripped
 10     [ae9496e7] (004/999) Accurately ripped
 11     [6ca4c150] (004/996) Accurately ripped
 12     [2b1343b7] (004/999) Accurately ripped
 13     [7458a2a6] (004/992) Accurately ripped
Offsetted by -30:
 01     [546dfda4] (005/1003) Accurately ripped
 02     [3f6aec7b] (005/1004) Accurately ripped
 03     [a4a5911c] (005/1002) Accurately ripped
 04     [109b0aac] (005/1002) Accurately ripped
 05     [d550b3ad] (005/1002) Accurately ripped
 06     [6604996e] (005/998) Accurately ripped
 07     [ec677e14] (005/999) Accurately ripped
 08     [e3937d34] (005/995) Accurately ripped
 09     [18231752] (005/999) Accurately ripped
 10     [27610cf1] (006/999) Accurately ripped
 11     [94b20296] (005/996) Accurately ripped
 12     [5611242d] (005/999) Accurately ripped
 13     [458ed561] (005/992) Accurately ripped
Offsetted by -6:
 01     [70d9f469] (002/1003) Accurately ripped
 02     [51e77b77] (002/1004) Accurately ripped
 03     [2db054d4] (002/1002) Accurately ripped
 04     [8ad4e168] (002/1002) Accurately ripped
 05     [dd16d3e2] (002/1002) Accurately ripped
 06     [137621e7] (002/998) Accurately ripped
 07     [0755393f] (002/999) Accurately ripped
 08     [d34ab155] (002/995) Accurately ripped
 09     [4424b282] (002/999) Accurately ripped
 10     [63c3cd15] (002/999) Accurately ripped
 11     [3ec29578] (002/996) Accurately ripped
 12     [4bef94f8] (002/999) Accurately ripped
 13     [89744149] (002/992) Accurately ripped
Offsetted by 6:
 01     [e8071cb1] (200/1003) Accurately ripped
 02     [cfaea94e] (200/1004) Accurately ripped
 03     [9590c173] (200/1002) Accurately ripped
 04     [22bb9f45] (200/1002) Accurately ripped
 05     [d2798313] (200/1002) Accurately ripped
 06     [5f934384] (200/998) Accurately ripped
 07     [63cfe9ad] (200/999) Accurately ripped
 08     [bf12e3d2] (200/995) Accurately ripped
 09     [b8757732] (200/999) Accurately ripped
 10     [4f8cc76d] (200/999) Accurately ripped
 11     [ea7ece8f] (200/996) Accurately ripped
 12     [4eae1f29] (200/999) Accurately ripped
 13     [47c20965] (200/992) Accurately ripped
Offsetted by -1382:
 01     [e73a3335] (000/1003) No match (V2 was not tested)
 02     [dd280bd7] (000/1004) No match (V2 was not tested)
 03     [ed58b250] (000/1002) No match (V2 was not tested)
 04     [12fd6292] (000/1002) No match (V2 was not tested)
 05     [3bfb9b1c] (000/1002) No match (V2 was not tested)
 06     [31b7a4dc] (000/998) No match (V2 was not tested)
 07     [4205b4cf] (000/999) No match (V2 was not tested)
 08     [e9dcd2f8] (000/995) No match (V2 was not tested)
 09     [b89ae193] (000/999) No match (V2 was not tested)
 10     [cc1015c9] (000/999) No match (V2 was not tested)
 11     [22539d9d] (000/996) No match (V2 was not tested)
 12     [dc6d6cb2] (000/999) No match (V2 was not tested)
 13     [e7e191f9] (000/992) No match (V2 was not tested)
Offsetted by -684:
 01     [0e45bec4] (002/1003) Accurately ripped
 02     [af594c2e] (002/1004) Accurately ripped
 03     [6d8666d6] (002/1002) Accurately ripped
 04     [50e7a7d2] (000/1002) No match (V2 was not tested)
 05     [1fed83d6] (000/1002) No match (V2 was not tested)
 06     [e2a9e269] (000/998) No match (V2 was not tested)
 07     [98522dbe] (000/999) No match (V2 was not tested)
 08     [0b0cae8e] (000/995) No match (V2 was not tested)
 09     [afc862c5] (000/999) No match (V2 was not tested)
 10     [2f7f04a4] (000/999) No match (V2 was not tested)
 11     [a7348713] (000/996) No match (V2 was not tested)
 12     [b0282541] (000/999) No match (V2 was not tested)
 13     [eb9af78d] (000/992) No match (V2 was not tested)
Offsetted by -682:
 01     [8cf5c8df] (000/1003) No match (V2 was not tested)
 02     [9d40dcb7] (000/1004) No match (V2 was not tested)
 03     [722b875e] (000/1002) No match (V2 was not tested)
 04     [e9753274] (000/1002) No match (V2 was not tested)
 05     [4e7dd4ef] (000/1002) No match (V2 was not tested)
 06     [94e94029] (000/998) No match (V2 was not tested)
 07     [4d2c65e5] (000/999) No match (V2 was not tested)
 08     [071052f5] (000/995) No match (V2 was not tested)
 09     [46c4af87] (000/999) No match (V2 was not tested)
 10     [3b226b66] (000/999) No match (V2 was not tested)
 11     [3742d2bd] (000/996) No match (V2 was not tested)
 12     [8c6b176b] (000/999) No match (V2 was not tested)
 13     [79ca4bf2] (000/992) No match (V2 was not tested)
Offsetted by -667:
 01     [2bc035e7] (000/1003) No match (V2 was not tested)
 02     [7d706a19] (000/1004) No match (V2 was not tested)
 03     [65c815bd] (000/1002) No match (V2 was not tested)
 04     [86e0463c] (000/1002) No match (V2 was not tested)
 05     [8545b9d8] (000/1002) No match (V2 was not tested)
 06     [0f31e8d7] (000/998) No match (V2 was not tested)
 07     [435330fa] (000/999) No match (V2 was not tested)
 08     [6d7fc7dd] (000/995) No match (V2 was not tested)
 09     [556c891a] (000/999) No match (V2 was not tested)
 10     [945a762c] (000/999) No match (V2 was not tested)
 11     [83fcb7e1] (000/996) No match (V2 was not tested)
 12     [62bf625a] (000/999) No match (V2 was not tested)
 13     [86704d1a] (000/992) No match (V2 was not tested)
Offsetted by -664:
 01     [67c4becd] (000/1003) No match (V2 was not tested)
 02     [2619f16a] (000/1004) No match (V2 was not tested)
 03     [5d94a974] (000/1002) No match (V2 was not tested)
 04     [0eca2718] (000/1002) No match (V2 was not tested)
 05     [e2034eee] (000/1002) No match (V2 was not tested)
 06     [6b82e1ef] (000/998) No match (V2 was not tested)
 07     [53619780] (000/999) No match (V2 was not tested)
 08     [c27b7a6b] (000/995) No match (V2 was not tested)
 09     [9597ba78] (000/999) No match (V2 was not tested)
 10     [8c2ebba0] (000/999) No match (V2 was not tested)
 11     [ffdec208] (000/996) No match (V2 was not tested)
 12     [f2f7fffa] (000/999) No match (V2 was not tested)
 13     [b24dd6e2] (000/992) No match (V2 was not tested)
Offsetted by -661:
 01     [246efc18] (000/1003) No match (V2 was not tested)
 02     [96802df1] (000/1004) No match (V2 was not tested)
 03     [0df3cb9c] (000/1002) No match (V2 was not tested)
 04     [0165fb89] (000/1002) No match (V2 was not tested)
 05     [b25751d9] (000/1002) No match (V2 was not tested)
 06     [3b76190c] (000/998) No match (V2 was not tested)
 07     [54050cad] (000/999) No match (V2 was not tested)
 08     [a4812d59] (000/995) No match (V2 was not tested)
 09     [6e71e77f] (000/999) No match (V2 was not tested)
 10     [9215a545] (000/999) No match (V2 was not tested)
 11     [c84b0224] (000/996) No match (V2 was not tested)
 12     [d4e60de9] (000/999) No match (V2 was not tested)
 13     [f4d1744e] (000/992) No match (V2 was not tested)
Offsetted by -646:
 01     [657909df] (000/1003) No match (V2 was not tested)
 02     [0c462564] (000/1004) No match (V2 was not tested)
 03     [3dbc5a03] (000/1002) No match (V2 was not tested)
 04     [3e82d240] (000/1002) No match (V2 was not tested)
 05     [f84d37c7] (000/1002) No match (V2 was not tested)
 06     [7e0151e7] (000/998) No match (V2 was not tested)
 07     [5d9fda23] (000/999) No match (V2 was not tested)
 08     [a1d87a29] (000/995) No match (V2 was not tested)
 09     [a9209aaa] (000/999) No match (V2 was not tested)
 10     [73b33bf7] (000/999) No match (V2 was not tested)
 11     [cc327264] (000/996) No match (V2 was not tested)
 12     [8de5abba] (000/999) No match (V2 was not tested)
 13     [1bb48462] (000/992) No match (V2 was not tested)
Offsetted by -132:
 01     [33b6cb6f] (000/1003) No match (V2 was not tested)
 02     [0052900a] (000/1004) No match (V2 was not tested)
 03     [08e73d86] (000/1002) No match (V2 was not tested)
 04     [10ed9d05] (000/1002) No match (V2 was not tested)
 05     [8577d91a] (000/1002) No match (V2 was not tested)
 06     [fc118d54] (000/998) No match (V2 was not tested)
 07     [fa64c8db] (000/999) No match (V2 was not tested)
 08     [26bdf78f] (000/995) No match (V2 was not tested)
 09     [61c24175] (000/999) No match (V2 was not tested)
 10     [d5e7ea23] (000/999) No match (V2 was not tested)
 11     [fa50ad80] (000/996) No match (V2 was not tested)
 12     [222fb60f] (000/999) No match (V2 was not tested)
 13     [6c200150] (000/992) No match (V2 was not tested)
Offsetted by -96:
 01     [7aba98f1] (000/1003) No match (V2 was not tested)
 02     [b6fc30f0] (000/1004) No match (V2 was not tested)
 03     [e7237b8f] (000/1002) No match (V2 was not tested)
 04     [3e1ddbee] (000/1002) No match (V2 was not tested)
 05     [a2ae197e] (000/1002) No match (V2 was not tested)
 06     [e1198221] (000/998) No match (V2 was not tested)
 07     [adb807b1] (000/999) No match (V2 was not tested)
 08     [4403e6c0] (000/995) No match (V2 was not tested)
 09     [bbe48865] (000/999) No match (V2 was not tested)
 10     [81d757bb] (000/999) No match (V2 was not tested)
 11     [32f58358] (000/996) No match (V2 was not tested)
 12     [9a9c5aa3] (000/999) No match (V2 was not tested)
 13     [1c5f273a] (000/992) No match (V2 was not tested)
Offsetted by -78:
 01     [e3f427a7] (000/1003) No match (V2 was not tested)
 02     [f2ec510f] (000/1004) No match (V2 was not tested)
 03     [bd436162] (000/1002) No match (V2 was not tested)
 04     [9a75df4c] (000/1002) No match (V2 was not tested)
 05     [13f6461b] (000/1002) No match (V2 was not tested)
 06     [4049f8a8] (000/998) No match (V2 was not tested)
 07     [be720232] (000/999) No match (V2 was not tested)
 08     [555d7291] (000/995) No match (V2 was not tested)
 09     [5eb61610] (000/999) No match
 10     [cc816efb] (000/999) No match
 11     [9bfd4d5e] (000/996) No match
 12     [7df5ab3a] (000/999) No match
 13     [324a93ac] (000/992) No match
Offsetted by -72:
 01     [191277cd] (000/1003) No match
 02     [19664c6e] (000/1004) No match
 03     [19774c9d] (000/1002) No match
 04     [b4a0585e] (000/1002) No match
 05     [b5530bf0] (000/1002) No match
 06     [0265bc95] (000/998) No match
 07     [ee96e3b0] (000/999) No match
 08     [f188233a] (000/995) No match
 09     [7a7582fb] (000/999) No match (V2 was not tested)
 10     [f344d728] (000/999) No match (V2 was not tested)
 11     [46f02332] (000/996) No match (V2 was not tested)
 12     [cab83a82] (000/999) No match (V2 was not tested)
 13     [67d773a3] (000/992) No match (V2 was not tested)
Offsetted by -60:
 01     [b4dc5208] (000/1003) No match (V2 was not tested)
 02     [d154a5b1] (000/1004) No match (V2 was not tested)
 03     [9e8798a6] (000/1002) No match (V2 was not tested)
 04     [cdb9c6dc] (000/1002) No match (V2 was not tested)
 05     [8b5f4ee9] (000/1002) No match (V2 was not tested)
 06     [f7b118c5] (000/998) No match (V2 was not tested)
 07     [9d0de1e9] (000/999) No match (V2 was not tested)
 08     [b5654b48] (000/995) No match (V2 was not tested)
 09     [3e73099d] (000/999) No match (V2 was not tested)
 10     [db74570d] (000/999) No match (V2 was not tested)
 11     [1d209586] (000/996) No match (V2 was not tested)
 12     [b7ff8f40] (000/999) No match (V2 was not tested)
 13     [5e833711] (000/992) No match (V2 was not tested)
Offsetted by -48:
 01     [559339dd] (000/1003) No match (V2 was not tested)
 02     [6f08070a] (000/1004) No match (V2 was not tested)
 03     [874ab7cf] (000/1002) No match (V2 was not tested)
 04     [e8e02c93] (000/1002) No match (V2 was not tested)
 05     [677d739a] (000/1002) No match (V2 was not tested)
 06     [4c96a606] (000/998) No match (V2 was not tested)
 07     [19e0c62c] (000/999) No match (V2 was not tested)
 08     [6a67f484] (000/995) No match (V2 was not tested)
 09     [bcbee5ab] (000/999) No match (V2 was not tested)
 10     [b00d4d98] (000/999) No match (V2 was not tested)
 11     [16826575] (000/996) No match (V2 was not tested)
 12     [087907f9] (000/999) No match (V2 was not tested)
 13     [29551d15] (000/992) No match (V2 was not tested)
Offsetted by -19:
 01     [ecffd90e] (000/1003) No match (V2 was not tested)
 02     [a4c0410e] (000/1004) No match (V2 was not tested)
 03     [a14cb759] (000/1002) No match (V2 was not tested)
 04     [d6105cc0] (000/1002) No match (V2 was not tested)
 05     [be0140b8] (000/1002) No match (V2 was not tested)
 06     [04014840] (000/998) No match (V2 was not tested)
 07     [2c273234] (000/999) No match (V2 was not tested)
 08     [cadc6237] (000/995) No match (V2 was not tested)
 09     [59f538c7] (000/999) No match (V2 was not tested)
 10     [f1334745] (000/999) No match (V2 was not tested)
 11     [79fec4e5] (000/996) No match (V2 was not tested)
 12     [81b4b3a7] (000/999) No match (V2 was not tested)
 13     [029b91a6] (000/992) No match (V2 was not tested)
Offsetted by 12:
 01     [a3ae5520] (000/1003) No match (V2 was not tested)
 02     [2b4dc70b] (000/1004) No match (V2 was not tested)
 03     [1f0c4b87] (000/1002) No match (V2 was not tested)
 04     [365d805a] (000/1002) No match (V2 was not tested)
 05     [c3e45b9d] (000/1002) No match (V2 was not tested)
 06     [3bc5e383] (000/998) No match (V2 was not tested)
 07     [afecb6e7] (000/999) No match (V2 was not tested)
 08     [49db311a] (000/995) No match (V2 was not tested)
 09     [72ff4ea9] (000/999) No match (V2 was not tested)
 10     [94bb0a3e] (000/999) No match (V2 was not tested)
 11     [75614eea] (000/996) No match (V2 was not tested)
 12     [cef0123b] (000/999) No match (V2 was not tested)
 13     [0e8d4e36] (000/992) No match (V2 was not tested)
Offsetted by 30:
 01     [c70d10bc] (000/1003) No match (V2 was not tested)
 02     [4823ee58] (000/1004) No match (V2 was not tested)
 03     [265fb08b] (000/1002) No match
 04     [b3abef3d] (000/1002) No match
 05     [4e8acaeb] (000/1002) No match
 06     [838050a2] (000/998) No match
 07     [29e639b6] (000/999) No match
 08     [f7edeafb] (000/995) No match
 09     [88d9aa50] (000/999) No match
 10     [5aea8b24] (000/999) No match
 11     [88c19a6a] (000/996) No match
 12     [0937d189] (000/999) No match
 13     [40e26f60] (000/992) No match

Track Peak [ CRC32  ] [W/O NULL] [  LOG   ]
 --   96.9 [B603BB75] [67AAF8D4]   CRC32   
 01   96.0 [12AA7599] [A96009B9]           
 02   95.8 [9EE0A47A] [050CCD2B]           
 03   95.8 [E78612F8] [22D99756]           
 04   95.8 [353AB9BD] [F20643FF]           
 05   96.3 [EBF447B9] [CF75FDC2]           
 06   84.3 [11CAC0DB] [972924CA]           
 07   95.9 [4C225D51] [259D3F82]           
 08   96.9 [611142E0] [CF3779BD]           
 09   96.6 [DF2015CC] [5EE36D15]           
 10   95.8 [25086D6D] [14010C8F]           
 11   95.8 [76774FC0] [F2146FA6]           
 12   95.8 [67823643] [4C8890EE]           
 13   95.8 [80319077] [C3560C79]           



Create a new paste based on this one


Comments: